Торренты   
 
 


Вундеркинды 3D / The Prodigies 3D (Энтони Шареурон / Antoine Charreyron) [2011г., мультфильм, фантастика, 1080p, BDRip, Anamorph OverUnder]

Рейтинг 3D:
26 голосов
5.1
Рейтинг фильма:
24 голосов
5.8
 
Вы должны быть авторизированы,
чтобы ставить оценки


Вундеркинды 3D / The Prodigies 3D
Год выпуска: 2011
Страна: Канада, Франция, Великобритания, Индия, Бельгия, Люксембург
Студии: Fidélité Films, Onyx Films, Studio 37
Жанр: мультфильм, фантастика
Продолжительность: 01:35:28
Перевод: Одноголосый закадровый den904
Субтитры: нет-Режиссер:
Антонио Шареурон / Antoine Charreyron
Сценарий:
Александр де Ла Пательер, Матьё Делапорт, Бернард Лентери / Alexander de la Pateler, Mathieu Delaporte, Bernard Lenteric
Художник:
Виктор Антонов / Viktor Antonov
Композитор:
Клаус Бадельт / Klaus Badelt
Продюсер
Джим Бертон, Оливье Делбоск, Атон Сумаш / Jim Burton, Olivier Delbosk, Aton Sumash
Роли озвучивали:
Джеффри Ивэн Томас, Лорен Эшли Картер, Алекс Мартин Нилтон Мартыньш Джейкоб Розенбаум, Изабелла Ван Ваейс-Описание:
Мультфильм рассказывает о судьбе пятерых нью-йоркских тинейджеров со сверхспособностями в не самый удачный период переходного возраста. Нападки со стороны окружающих заставляют их не на шутку озлобиться и начать методично сравнивать город с землей. Но есть и шестой, который, вроде бы, может спасти нас от несвоевременного Апокалипсиса.-Качество: BDrip
Контейнер: MKV
Формат 3D: Anamorph OverUnder / Вертикальная анаморфная стереопара
Видео кодек: x264
Аудио кодек: AC3
Видео: x264, 1920x1080, 23.976 кадр/сек, 6832 Kбит/сек
Аудио:
русский; AC3, 6 каналов, 640 Кбит/сек, 48,0 КГц (VO den904) Edit by Ash61
английский; AC3, 6 каналов, 640 Кбит/сек, 48,0 КГц

СКРИНШОТЫ

MI

Код:
Общее
Уникальный идентификатор                 : 172682266151745405615418381627900465817 (0x81E9650CAC5DB8BC84EDD7C0ECEA9299)
Полное имя                               : H:\Source\TheProdigies.3D.2011.BD3DRip.Half.OU.x264.AC3.3D-RuGroup.mkv
Формат                                   : Matroska
Версия формата                           : Version 4 / Version 2
Размер файла                             : 5,52 Гбайт
Продолжительность                        : 1 ч. 35 м.
Общий поток                              : 8277 Кбит/сек
Название фильма                          : The Prodigies 3D (2011)  release 3D-RuGroup
Дата кодирования                         : UTC 2013-09-21 19:22:20
Программа кодирования                    : mkvmerge v6.3.0 ('You can't stop me!') built on Jul 19 2013 16:27:38
Библиотека кодирования                   : libebml v1.3.0 + libmatroska v1.4.1
Видео
Идентификатор                            : 1
Формат                                   : AVC
Формат/Информация                        : Advanced Video Codec
Профиль формата                          : High@L4.0
Параметр CABAC формата                   : Да
Параметр ReFrames формата                : 4 кадра
Идентификатор кодека                     : V_MPEG4/ISO/AVC
Продолжительность                        : 1 ч. 35 м.
Битрейт                                  : 6832 Кбит/сек
Ширина                                   : 1920 пикселей
Высота                                   : 1080 пикселей
Соотношение сторон                       : 16:9
Режим частоты кадров                     : Постоянный
Частота кадров                           : 23,976 кадра/сек
Цветовое пространство                    : YUV
Субдискретизация насыщенности            : 4:2:0
Битовая глубина                          : 8 бит
Тип развёртки                            : Прогрессивная
Бит/(Пиксели*Кадры)                      : 0.137
Размер потока                            : 4,56 Гбайт (83%)
Заголовок                                : rip by itsamna
Библиотека кодирования                   : x264 core 116 r2074 2641b9e
Настройки программы                      : cabac=1 / ref=4 / deblock=1:-3:-3 / analyse=0x3:0x133 / me=umh / subme=9 / psy=1 / psy_rd=1.00:0.15 / mixed_ref=1 / me_range=32 / chroma_me=1 / trellis=2 / 8x8dct=1 / cqm=0 / deadzone=21,11 / fast_pskip=0 / chroma_qp_offset=-3 / threads=3 / sliced_threads=0 / nr=0 / decimate=1 / interlaced=0 / bluray_compat=0 / constrained_intra=0 / bframes=6 / b_pyramid=2 / b_adapt=2 / b_bias=0 / direct=3 / weightb=1 / open_gop=0 / weightp=2 / keyint=250 / keyint_min=23 / scenecut=40 / intra_refresh=0 / rc_lookahead=40 / rc=crf / mbtree=1 / crf=16.5 / qcomp=0.70 / qpmin=10 / qpmax=69 / qpstep=4 / ip_ratio=1.40 / aq=1:0.70
Default                                  : Да
Forced                                   : Нет
Аудио #1
Идентификатор                            : 2
Формат                                   : AC-3
Формат/Информация                        : Audio Coding 3
Расширение режима                        : CM (complete main)
Параметр Endianness формата              : Big
Идентификатор кодека                     : A_AC3
Продолжительность                        : 1 ч. 35 м.
Вид битрейта                             : Постоянный
Битрейт                                  : 640 Кбит/сек
Каналы                                   : 6 каналов
Расположение каналов                     : Front: L C R, Side: L R, LFE
Частота                                  : 48,0 КГц
Битовая глубина                          : 16 бит
Метод сжатия                             : С потерями
Размер потока                            : 437 Мбайт (8%)
Заголовок                                : VO den904 (Edit By Ash61)
Язык                                     : Russian
Default                                  : Да
Forced                                   : Нет
Аудио #2
Идентификатор                            : 3
Формат                                   : AC-3
Формат/Информация                        : Audio Coding 3
Расширение режима                        : CM (complete main)
Параметр Endianness формата              : Big
Идентификатор кодека                     : A_AC3
Продолжительность                        : 1 ч. 35 м.
Вид битрейта                             : Постоянный
Битрейт                                  : 640 Кбит/сек
Каналы                                   : 6 каналов
Расположение каналов                     : Front: L C R, Side: L R, LFE
Частота                                  : 48,0 КГц
Битовая глубина                          : 16 бит
Метод сжатия                             : С потерями
Размер потока                            : 437 Мбайт (8%)
Язык                                     : English
Default                                  : Нет
Forced                                   : Нет
Меню
00:00:00.000                             : :CHAPTER01
00:05:27.827                             : :CHAPTER02
00:09:46.419                             : :CHAPTER03
00:14:06.012                             : :CHAPTER04
00:19:46.310                             : :CHAPTER05
00:27:55.549                             : :CHAPTER06
00:36:05.622                             : :CHAPTER07
00:42:50.276                             : :CHAPTER08
00:51:45.394                             : :CHAPTER09
00:56:32.180                             : :CHAPTER10
01:01:33.815                             : :CHAPTER11
01:05:43.398                             : :CHAPTER12
01:12:26.425                             : :CHAPTER13
01:16:52.483                             : :CHAPTER14
01:24:54.089                             : :CHAPTER15
01:28:30.096                             : :CHAPTER16
--Релиз группы:

Проверено на встроенном плейере ТВ LG 42LW4500
--22.09.2013 - Релиз обновлён - добавлена русская одноголосая дорожка от den904, за ее "подгонку" под данный релиз спасибо Ash61.
Желающие, скачайте заново торрент-файл.
Благодарности релизеру (24)

Торрент:

Статус:

Размер:

Зарегистрирован   [ 2013-09-22 11:21 ]

проверено

5.52 GB

 
 Мнение о фильме (5)





Что-то тут 3D не очень ярко выражено, можно было и в 2D глянуть(:
 

Стерео нормальное,что зря писать.Просто нарисован в упрощённом стиле.
Отдельное спасибо за перевод.
 

не фонтан
 

Не очень, как комикс
 

всё ок