Торренты   
 
 

 

Путешествие к Центру Земли 3D / Journey to the Center of the Earth 3D (Эрик Бревиг) [2008 г., Anamorph OverUnder]

Рейтинг 3D:
197 голосов
8.7
Рейтинг фильма:
187 голосов
8.2
 
Вы должны быть авторизированы,
чтобы ставить оценки


-Путешествие к Центру Земли 3D / Journey to the Center of the Earth 3D- «Та же планета. Другой мир.»-- Год выпуска: 2008
Страна: США New Line Cinema, Walden Media, Journey Films()
Жанр: фантастика, боевик, триллер, комедия, приключения, семейный
Продолжительность: 01:32:34
Перевод:
Профессиональный (дублированный)
Профессиональный (многоголосый закадровый)
Профессиональный (одногоголосый закадровый)
Режиссер: Эрик Бревиг
В ролях: Брендан Фрейзер, Джош Хатчерсон, Анита Брием, Сет Майерс, Жан Мишель Паре, Джейн Вилер, Фрэнк Фонтейн, Джанкарло Кальтабиано, Каньехтио Хорн, Гарт Гилкер
Описание: Пытаясь узнать о судьбе исчезнувшего брата, учёный, его племянник и их проводница открывают фантастичный и опасный затерянный мир в Центре Земли...
Формат 3d: Anamorph OverUnder
Видео: AVC, h264, 1920х1080 , 23,976 кадр/сек, 11,0 Мбит/сек
Аудио 1: Russian Dolby Digital Audio 5.1 / 48 kHz / 448 kbps (DUB)
Аудио 2: Russian Dolby Digital Audio 5.1 / 48 kHz / 448 kbps (MVO - С.Р.И.)
Аудио 3: Russian Dolby Digital Audio 5.1 / 48 kHz / 448 kbps (VO - Ю. Сербин)
Аудио 4: Ukrainian Dolby Digital Audio 5.1 / 48 kHz / 448 kbps (DUB)
Аудио 5: English Dolby Digital Audio 5.1 / 48 kHz / 640 kbps
Лучшее "спасибо" - скачать сэмпл...

Скриншоты



Gif анимация

МИ

Общее
Уникальный идентификатор : 254386113073690947602889033430262986971 (0xBF60FBB6F59F7094BFDAF5D4514DB8DB)
Полное имя : Путешествие к центру земли_half_OU_(TopGun).mkv
Формат : Matroska
Версия формата : Version 2
Размер файла : 8,86 Гбайт
Продолжительность : 1 ч. 32 м.
Общий поток : 13,7 Мбит/сек
Дата кодирования : UTC 2012-01-14 12:19:44
Программа кодирования : mkvmerge v5.2.1 ('A Far Off Place') built on Jan 2 2012 23:21:10
Библиотека кодирования : libebml v1.2.3 + libmatroska v1.3.0
Видео
Идентификатор : 1
Формат : AVC
Формат/Информация : Advanced Video Codec
Профиль формата : High@L4.1
Параметр CABAC формата : Да
Параметр ReFrames формата : 4 кадра
Идентификатор кодека : V_MPEG4/ISO/AVC
Продолжительность : 1 ч. 32 м.
Битрейт : 11,0 Мбит/сек
Ширина : 1920 пикселей
Высота : 1080 пикселей
Соотношение сторон : 16:9
Частота кадров : 23,976 кадра/сек
Цветовое пространство : YUV
Субдискретизация насыщенности : 4:2:0
Битовая глубина : 8 бит
Тип развёртки : Прогрессивная
Бит/(Пиксели*Кадры) : 0.221
Размер потока : 7,11 Гбайт (80%)
Заголовок : BDRip by TopGun
Библиотека кодирования : x264 core 116 r2074 2641b9e
Настройки программы : cabac=1 / ref=4 / deblock=1:-3:-3 / analyse=0x3:0x133 / me=umh / subme=9 / psy=1 / psy_rd=1.00:0.05 / mixed_ref=1 / me_range=16 / chroma_me=1 / trellis=2 / 8x8dct=1 / cqm=0 / deadzone=21,11 / fast_pskip=1 / chroma_qp_offset=-3 / threads=6 / sliced_threads=0 / nr=0 / decimate=1 / interlaced=0 / bluray_compat=0 / constrained_intra=0 / bframes=6 / b_pyramid=2 / b_adapt=2 / b_bias=0 / direct=3 / weightb=1 / open_gop=0 / weightp=2 / keyint=250 / keyint_min=23 / scenecut=40 / intra_refresh=0 / rc_lookahead=60 / rc=crf / mbtree=1 / crf=18.0 / qcomp=0.60 / qpmin=10 / qpmax=69 / qpstep=4 / vbv_maxrate=50000 / vbv_bufsize=50000 / crf_max=0.0 / nal_hrd=none / ip_ratio=1.40 / aq=1:0.80
Язык : Russian
Default : Да
Forced : Нет
Аудио #1
Идентификатор : 2
Формат : AC-3
Формат/Информация : Audio Coding 3
Расширение режима : CM (complete main)
Идентификатор кодека : A_AC3
Продолжительность : 1 ч. 32 м.
Вид битрейта : Постоянный
Битрейт : 448 Кбит/сек
Каналы : 6 каналов
Расположение каналов : Front: L C R, Side: L R, LFE
Частота : 48,0 КГц
Битовая глубина : 16 бит
Метод сжатия : С потерями
Размер потока : 297 Мбайт (3%)
Заголовок : Rus AC3 - DUB
Язык : Russian
Default : Да
Forced : Да
Аудио #2
Идентификатор : 3
Формат : AC-3
Формат/Информация : Audio Coding 3
Расширение режима : CM (complete main)
Идентификатор кодека : A_AC3
Продолжительность : 1 ч. 32 м.
Вид битрейта : Постоянный
Битрейт : 448 Кбит/сек
Каналы : 6 каналов
Расположение каналов : Front: L C R, Side: L R, LFE
Частота : 48,0 КГц
Битовая глубина : 16 бит
Метод сжатия : С потерями
Размер потока : 297 Мбайт (3%)
Заголовок : Rus AC3 - MVO - С.Р.И.
Язык : Russian
Default : Нет
Forced : Нет
Аудио #3
Идентификатор : 4
Формат : AC-3
Формат/Информация : Audio Coding 3
Расширение режима : CM (complete main)
Идентификатор кодека : A_AC3
Продолжительность : 1 ч. 32 м.
Вид битрейта : Постоянный
Битрейт : 448 Кбит/сек
Каналы : 6 каналов
Расположение каналов : Front: L C R, Side: L R, LFE
Частота : 48,0 КГц
Битовая глубина : 16 бит
Метод сжатия : С потерями
Размер потока : 297 Мбайт (3%)
Заголовок : Rus AC3 - VO - Ю. Сербин
Язык : Russian
Default : Нет
Forced : Нет
Аудио #4
Идентификатор : 5
Формат : AC-3
Формат/Информация : Audio Coding 3
Расширение режима : CM (complete main)
Идентификатор кодека : A_AC3
Продолжительность : 1 ч. 32 м.
Вид битрейта : Постоянный
Битрейт : 448 Кбит/сек
Каналы : 6 каналов
Расположение каналов : Front: L C R, Side: L R, LFE
Частота : 48,0 КГц
Битовая глубина : 16 бит
Метод сжатия : С потерями
Размер потока : 297 Мбайт (3%)
Заголовок : Ukr AC3
Язык : Ukrainian
Default : Нет
Forced : Нет
Аудио #5
Идентификатор : 6
Формат : AC-3
Формат/Информация : Audio Coding 3
Расширение режима : CM (complete main)
Идентификатор кодека : A_AC3
Продолжительность : 1 ч. 32 м.
Вид битрейта : Постоянный
Битрейт : 640 Кбит/сек
Каналы : 6 каналов
Расположение каналов : Front: L C R, Side: L R, LFE
Частота : 48,0 КГц
Битовая глубина : 16 бит
Метод сжатия : С потерями
Размер потока : 424 Мбайт (5%)
Заголовок : Eng AC3
Язык : English
Default : Нет
Forced : Нет
Меню
00:00:00.000 : :01
00:03:21.618 : :02
00:07:13.850 : :03
00:11:56.424 : :04
00:17:51.362 : :05
00:22:22.007 : :06
00:28:11.023 : :07
00:33:36.473 : :08
00:38:58.294 : :09
00:42:18.035 : :10
00:45:23.596 : :11
00:51:20.369 : :12
00:56:32.639 : :13
01:00:20.867 : :14
01:05:20.458 : :15
01:08:56.090 : :16
01:14:09.737 : :17
01:15:58.012 : :18
01:19:05.449 : :19
01:22:02.835 : :20
01:26:07.996 : :21
Внимание! У кого на ТВ не показывает, не прет, не воспроизводит, не кажет, итд... прогоняем через MKVmergeGUI используя за основу эту инструкцию - MKVmergeGUI (инструкция по основным операциям редактирования) - Если не помогает, удаляем главы по этой же инструкции!
Остальные раздачи этого фильма (5)
Благодарности релизеру (96)

Торрент:

Статус:

Размер:

Зарегистрирован   [ 2012-05-06 21:04 ]

проверено

8.86 GB