Торренты   
 
 

 

Вверх 3D / Up 3D (Боб Питерсон, Пит Доктер) [2009 г., Anamorph SideBySide]

Рейтинг 3D:
32 голосов
8.4
Рейтинг фильма:
32 голосов
8.9
 
Вы должны быть авторизированы,
чтобы ставить оценки


Вверх 3D / Up 3D
Год выпуска: 2009
Страна: США
Жанр: комедия, приключения, семейный, мультфильм
Продолжительность: 01:36:37
Перевод: Профессиональный (полное дублирование)
Режиссер: Боб Питерсон, Пит Доктер
В ролях: Роли озвучивали: Эдвард Эснер, Кристофер Пламмер, Джордан Нагаи, Боб Питерсон, Делрой Линдо, Джером Рэнфт, Джон Ратценбергер, Дэвид Кэй, Эли Доктер, Джереми Лири
Описание: 78-летний ворчун Карл Фредриксен считает, что жизнь обходит его стороной. Чтобы сдержать обещание, данное своей почившей жене, он решает осуществить свою мечту о великом приключении,
привязав тысячи воздушных шариков к своему дому и улетев в дебри Южной Америки. Не пролетев и полмили, путешественник обнаруживает, что он ненароком прихватил с собой крайне разговорчивого и
неисправимо жизнерадостного 8-летнего мальчика по имени Рассел…
Доп. информация: Как пишет Уважаемый TopGun Внимание! У кого на ТВ не показывает, не прет, не воспроизводит, не кажет, итд... прогоняем через MKVmergeGUI используя за основу эту инструкцию - MKVmergeGUI (инструкция по основным операциям редактирования) - Если не помогает, удаляем главы по этой же инструкции!
Формат 3d: Anamorph SideBySide
Порядок ракурсов: Параллельная пара
Видео: 1920x1080 AVC 23.976 fps 16.1 Mbps
Аудио: AC3 48.0 KHz 5.1 448 Kbps 6 channels RUS

MI

General
Unique ID : 168348648403719580577546155723716462494 (0x7EA6C532C2870C1E037BA147C20E879E)
Complete name : D:\Вверх 3D.mkv
Format : Matroska
Format version : Version 2
File size : 10.8 GiB
Duration : 1h 36mn
Overall bit rate : 16.1 Mbps
Writing application : Lavf51.12.1
Writing library : Lavf51.12.1
Video
ID : 1
Format : AVC
Format/Info : Advanced Video Codec
Format profile : Baseline@L1.3
Format settings, CABAC : No
Format settings, ReFrames : 1 frame
Codec ID : V_MPEG4/ISO/AVC
Duration : 1h 36mn
Bit rate : 15.3 Mbps
Width : 1 920 pixels
Height : 1 080 pixels
Display aspect ratio : 16:9
Frame rate : 23.976 fps
Color space : YUV
Chroma subsampling : 4:2:0
Bit depth : 8 bits
Scan type : Progressive
Bits/(Pixel*Frame) : 0.307
Stream size : 10.3 GiB (95%)
Language : Russian
Default : Yes
Forced : No
Audio
ID : 2
Format : AC-3
Format/Info : Audio Coding 3
Mode extension : CM (complete main)
Codec ID : A_AC3
Duration : 1h 36mn
Bit rate mode : Constant
Bit rate : 448 Kbps
Channel(s) : 6 channels
Channel positions : Front: L C R, Side: L R, LFE
Sampling rate : 48.0 KHz
Bit depth : 16 bits
Compression mode : Lossy
Stream size : 308 MiB (3%)
Language : Russian

Скриншоты




Остальные раздачи этого фильма (3)
Благодарности релизеру (6)

Торрент:

Статус:

Размер:

Зарегистрирован   [ 2012-01-14 23:54 ]

* не проверено

10.77 GB

 
 Мнение о фильме (15)





Спасиба прикольный мульт)))
 

Собака просто душка!
Смотри.
 

все на отлично
 
АНДРЕЙЗ0Л0Т0К Профиль 19-Авг-2013 11:48

Качество на высоте!
 

Классный мульт.С удовольствием посмотрю в 3D
 

Классный мультик, детям нравится
 

Хороший семейный мульт
 

спасибо огромное класный мультик
 

Эффектов 3д почти нет, но от этого мультфильм не беднеет! Очень добрый и отличный мульт!
 

Интересный мультфильм. Рекомендуем посмотреть всей семьей!
 

Хороший мульт, 3D хорошее, только вылетов мало!
 

Все уже привыкли к вылетам, а их тут нет.
 

Классный мультик. Мне понравился.
 

отличный мульт!!!
 

класс