Торренты   
 
 


Мадагаскар 3 Трейлер / Madagascar 3: Europe's Most Wanted Trailer[2012 г.,DCPrip, Anamorph OverUnder]

Рейтинг 3D:
Пока никто не голосовал
Рейтинг фильма:
Пока никто не голосовал
 
Вы должны быть авторизированы,
чтобы ставить оценки


Мадагаскар 3, Трейлер / Madagascar 3: Europe's Most Wanted Trailer
--Год выпуска: 2012
Страна: США
Жанр: мультфильм, ...
Продолжительность: 00:02:26--Описание: Лев Алекс, зебра Марти, жираф Мелман и бегемот Глория присоединяются к бродячему цирку, в надежде вернуться в Нью-Йорк.--Формат 3d: Anamorph OverUnder (левый ракурс верхний)
Качество: DCPrip
Контейнер: mkv
Видео: AVC / 1920х1080 / 23.976 fps / 9 633 Kbps
Аудио: Русский / AC3 / 6 ch / 448 Kbps / 48 KHz

MediaInfo:

Код:
General
Unique ID                        : 243045716720623284507105943800719982842 (0xB6D8E701A31ACF2189BACA571B9DC0FA)
Complete name                    : L:\_3D\3D-Trailers\Trailer_MadagascarIII_3d -abq.mkv
Format                           : Matroska
File size                        : 179 MiB
Duration                         : 2mn 26s
Overall bit rate                 : 10.3 Mbps
Encoded date                     : UTC 2012-01-14 22:58:16
Writing application              : mkvmerge v4.0.0 ('The Stars were mine') сборка от Jun  6 2010 16:18:42
Writing library                  : libebml v1.0.0 + libmatroska v1.0.0
Video
ID                               : 1
Format                           : AVC
Format/Info                      : Advanced Video Codec
Format profile                   : High@L4.1
Format settings, CABAC           : Yes
Format settings, ReFrames        : 4 frames
Format settings, GOP             : M=1, N=24
Codec ID                         : V_MPEG4/ISO/AVC
Duration                         : 2mn 26s
Bit rate                         : 9 633 Kbps
Width                            : 1 920 pixels
Height                           : 1 080 pixels
Display aspect ratio             : 16:9
Frame rate                       : 23.976 fps
Color space                      : YUV
Chroma subsampling               : 4:2:0
Bit depth                        : 8 bits
Scan type                        : Progressive
Bits/(Pixel*Frame)               : 0.194
Stream size                      : 168 MiB (94%)
Writing library                  : x264 core 116 r2074 2641b9e
Encoding settings                : cabac=1 / ref=4 / deblock=1:-3:-3 / analyse=0x3:0x113 / me=umh / subme=9 / psy=1 / psy_rd=1.00:0.15 / mixed_ref=1 / me_range=16 / chroma_me=1 / trellis=2 / 8x8dct=1 / cqm=0 / deadzone=21,11 / fast_pskip=1 / chroma_qp_offset=-3 / threads=6 / sliced_threads=0 / nr=0 / decimate=1 / interlaced=0 / bluray_compat=0 / constrained_intra=0 / bframes=6 / b_pyramid=2 / b_adapt=2 / b_bias=0 / direct=3 / weightb=1 / open_gop=0 / weightp=2 / keyint=250 / keyint_min=23 / scenecut=40 / intra_refresh=0 / rc_lookahead=40 / rc=crf / mbtree=1 / crf=18.0 / qcomp=0.60 / qpmin=0 / qpmax=61 / qpstep=4 / ip_ratio=1.40 / aq=1:1.00
Language                         : English
Audio
ID                               : 2
Format                           : AC-3
Format/Info                      : Audio Coding 3
Mode extension                   : CM (complete main)
Codec ID                         : A_AC3
Duration                         : 2mn 26s
Bit rate mode                    : Constant
Bit rate                         : 448 Kbps
Channel(s)                       : 6 channels
Channel positions                : Front: L C R, Side: L R, LFE
Sampling rate                    : 48.0 KHz
Bit depth                        : 16 bits
Compression mode                 : Lossy
Stream size                      : 7.81 MiB (4%)
Language                         : Russian

Скриншоты

Благодарности релизеру (0)

Торрент:

Статус:

Размер:

Зарегистрирован   [ 2012-01-15 20:16 ]

проверено

179 MB