Торренты   
 
 


Облачно, возможны осадки в виде фрикаделек в 3Д / Cloudy with a Chance of Meatballs in 3D (Фил Лорд / Phil Lord, Крис Миллер / Chris Miller) [2009 г., семейный, мультфильм, BDrip 1080p] раздельная стереопара

Облачно, возможны осадки в виде фрикаделек / Cloudy with a Chance of Meatballs

Год выпуска: 2009
Страна: США
Жанр: семейный, мультфильм
Продолжительность: 01:29:53
Перевод: Профессиональный (полное дублирование)
Русские субтитры: нет
Режиссер: Фил Лорд / Phil Lord, Крис Миллер / Chris Miller
В ролях: Билл Хэйдер, Анна Фэрис, Джеймс Каан, Энди Сэмберг, Брюс Кэмпбелл, Мистер Ти, Бобби Дж. Томпсон, Бенджамин Брэтт, Нил Патрик Харрис, Эл Рокер
Описание: Ученый пытается избавить беднейшую часть человечества от голода, но что-то у него идет не так, и в результате с неба начинают выпадать осадки в виде… еды.
Качество: BDrip
Формат: MKV
Видео: MPEG4 Video (H264) 1920x1080p 23.98fp, ~10 mbps
Аудио: English : Dolby AC3 48000Hz 6ch / 640 kbps
Аудио: Русский : Dolby AC3 48000Hz 6ch / 640 kbps

me left

Format : Matroska
File size : 6.44 GiB
Duration : 1h 29mn
Overall bit rate : 10.3 Mbps
Encoded date : UTC 2010-06-10 14:04:37
Writing application : mkvmerge v3.4.0 ('Rapunzel') сборка от May 15 2010 09:38:20
Writing library : libebml v0.8.0 + libmatroska v0.9.0
Video
ID : 1
Format : AVC
Format/Info : Advanced Video Codec
Format profile : Baseline@L4.0
Format settings, CABAC : No
Format settings, ReFrames : 1 frame
Muxing mode : Container profile=Unknown@4.0
Codec ID : V_MPEG4/ISO/AVC
Duration : 1h 29mn
Bit rate : 9 413 Kbps
Nominal bit rate : 10 000 Kbps
Width : 1 920 pixels
Height : 1 080 pixels
Display aspect ratio : 16:9
Frame rate : 23.976 fps
Original frame rate : 21 845.334 fps
Resolution : 8 bits
Colorimetry : 4:2:0
Scan type : Progressive
Bits/(Pixel*Frame) : 0.189
Stream size : 5.91 GiB (92%)
Writing library : x264 core 67 r1127 8d82fec
Encoding settings : cabac=0 / ref=1 / deblock=0:0:0 / analyse=0x1:0 / me=dia / subme=8 / psy_rd=1.0:0.0 / mixed_ref=0 / me_range=4 / chroma_me=0 / trellis=0 / 8x8dct=0 / cqm=0 / deadzone=21,11 / chroma_qp_offset=-2 / threads=1 / nr=0 / decimate=1 / mbaff=0 / bframes=0 / keyint=12 / keyint_min=7 / scenecut=0 / rc=abr / bitrate=10000 / ratetol=1.0 / qcomp=0.50 / qpmin=2 / qpmax=31 / qpstep=3 / ip_ratio=1.25 / aq=1:1.00
Language : Russian
Audio
ID : 2
Format : AC-3
Format/Info : Audio Coding 3
Format_Settings_ModeExtension : CM (complete main)
Codec ID : A_AC3
Duration : 1h 29mn
Bit rate mode : Constant
Bit rate : 640 Kbps
Channel(s) : 6 channels
Channel positions : Front: L C R, Side: L R, LFE
Sampling rate : 48.0 KHz
Stream size : 411 MiB (6%)
Language : Russian

me right

Format : Matroska
File size : 6.44 GiB
Duration : 1h 29mn
Overall bit rate : 10.3 Mbps
Encoded date : UTC 2010-06-10 14:12:40
Writing application : mkvmerge v3.4.0 ('Rapunzel') сборка от May 15 2010 09:38:20
Writing library : libebml v0.8.0 + libmatroska v0.9.0
Video
ID : 1
Format : AVC
Format/Info : Advanced Video Codec
Format profile : Baseline@L4.0
Format settings, CABAC : No
Format settings, ReFrames : 1 frame
Muxing mode : Container profile=Unknown@4.0
Codec ID : V_MPEG4/ISO/AVC
Duration : 1h 29mn
Bit rate : 9 412 Kbps
Nominal bit rate : 10 000 Kbps
Width : 1 920 pixels
Height : 1 080 pixels
Display aspect ratio : 16:9
Frame rate : 23.976 fps
Original frame rate : 21 845.334 fps
Resolution : 8 bits
Colorimetry : 4:2:0
Scan type : Progressive
Bits/(Pixel*Frame) : 0.189
Stream size : 5.91 GiB (92%)
Writing library : x264 core 67 r1127 8d82fec
Encoding settings : cabac=0 / ref=1 / deblock=0:0:0 / analyse=0x1:0 / me=dia / subme=8 / psy_rd=1.0:0.0 / mixed_ref=0 / me_range=4 / chroma_me=0 / trellis=0 / 8x8dct=0 / cqm=0 / deadzone=21,11 / chroma_qp_offset=-2 / threads=1 / nr=0 / decimate=1 / mbaff=0 / bframes=0 / keyint=12 / keyint_min=7 / scenecut=0 / rc=abr / bitrate=10000 / ratetol=1.0 / qcomp=0.50 / qpmin=2 / qpmax=31 / qpstep=3 / ip_ratio=1.25 / aq=1:1.00
Language : English
Audio
ID : 2
Format : AC-3
Format/Info : Audio Coding 3
Format_Settings_ModeExtension : CM (complete main)
Codec ID : A_AC3
Duration : 1h 29mn
Bit rate mode : Constant
Bit rate : 640 Kbps
Channel(s) : 6 channels
Channel positions : Front: L C R, Side: L R, LFE
Sampling rate : 48.0 KHz
Stream size : 411 MiB (6%)
Language : English

Скриншоты

Cloudy with a Chance of Meatballs.torrent
Торрент: Не зарегистрирован

Скачать

65 KB

Добавлен: 2010-06-10 18:46
Скачано: 1272 раз  [ Список скачавших ]
   
Комментарии:





Вообще ищется исходник. Параметры данного рипа по меньшей мере относятся к разряду - "ужас".
Чего только стоят параметры ref=1 / me=dia / me_range=4 и т.д. и т.п., обычно с такими параметрами рип сразу отправляют в мусорку... Явно сделано на скорую руку, для максимально быстрого кодирования в ущерб качеству.
Чешутся руки переделать все по своему.
 

Наконец то! Качаем. Почему 3Д формата нет, это вертикальная пара?
ПС: Мне тоже показалось что мыльно, рип не идеальный, можно было в 720р из этого сделать с поднятием резкости.
 

можно было в 720р из этого сделать с поднятием резкости.
рип с рипа? Да еще и с чрезмерной фильтрацией? думаю от 3д при таком раскладе ничего не останется вовсе... Тут нужен исходник
 

Топик был перенесен из форума Фильмы HD в форум Архив

Dag13