Торренты   
 
 


Kenny Chesney: Summer 3D [2011, BDrip, 1080p, Full OverUnder]

Рейтинг 3D:
Пока никто не голосовал
Рейтинг фильма:
Пока никто не голосовал
 
Вы должны быть авторизированы,
чтобы ставить оценки


Kenny Chesney: Summer

Год выпуска: 2011
Страна: США
Студия: Image Entertainment
Жанр: Country, Soft Rock
Продолжительность: 01:38:49
Перевод: Отсутствует
Русские субтитры: нет
Описание: Музыкальный фильм-концерт о творчестве известного американского исполнителя кантри-музыки Кенни Чесни в формате 3D.
Треклист:
1. Live Those Songs
2. Summertime
3. Beer In Mexico
4. Keg In The Closet
5. Out Last Night
6. Big Star
7. No Shoes,No Shirt,No Problems
8. I Go Back
9. Anything But Mine
10. Down The Road
11. Back Where I Come From
12. There Goes My Life
13. Old Blue Chair
14. Living In Fast Forward
15. Young
16. Boston
17. Everybody Wants to go to Heaven
18. When The Sun Goes Down
19. Don't Happen Twice
20. She Thinks My Tractor's Sexy
21. Better As A Memory
22. Ain't Back Yet
23. Be As You Are
На встроенных ТВ-плейерах работать не будет!!!
Качество: BDrip
Контейнер: MKV
Формат 3D: OverUnder / Вертикальная стереопара
Порядок ракурсов: левый ракурс первый
Видео кодек: x264
Аудио кодек: DTS
Видео: AVC / 1920х2160 / 23,976 кадр/сек / 34,8 Мбит/сек
Аудио: Английский / DTS / 48 KHz / 5.1 ch / 1510 Kbps

MediaInfo

General
Complete name : D:\3D Концерты\Kenny Chesney - Summer.mkv
Format : Matroska
File size : 25.6 GiB
Duration : 1h 38mn
Overall bit rate : 37.1 Mbps
Encoded date : UTC 2012-01-16 12:45:18
Writing application : mkvmerge v3.4.0 ('Rapunzel') сборка от May 15 2010 09:38:20
Writing library : libebml v0.8.0 + libmatroska v0.9.0
Video
ID : 1
Format : AVC
Format/Info : Advanced Video Codec
Format profile : High@L5.0
Format settings, CABAC : Yes
Format settings, ReFrames : 5 frames
Muxing mode : Container profile=Unknown@5.0
Codec ID : V_MPEG4/ISO/AVC
Duration : 1h 38mn
Bit rate : 34.8 Mbps
Width : 1 920 pixels
Height : 2 160 pixels
Display aspect ratio : 0.889
Frame rate : 23.976 fps
Color space : YUV
Chroma subsampling : 4:2:0
Bit depth : 8 bits
Scan type : Progressive
Bits/(Pixel*Frame) : 0.350
Stream size : 24.0 GiB (94%)
Writing library : x264 core 119 r2106 07efeb4
Encoding settings : cabac=1 / ref=5 / deblock=1:-1:-1 / analyse=0x3:0x113 / me=umh / subme=9 / psy=1 / psy_rd=1.00:0.15 / mixed_ref=1 / me_range=16 / chroma_me=1 / trellis=2 / 8x8dct=1 / cqm=0 / deadzone=21,11 / fast_pskip=1 / chroma_qp_offset=-3 / threads=6 / sliced_threads=0 / nr=0 / decimate=1 / interlaced=0 / bluray_compat=0 / constrained_intra=0 / bframes=4 / b_pyramid=2 / b_adapt=2 / b_bias=0 / direct=3 / weightb=1 / open_gop=0 / weightp=2 / keyint=250 / keyint_min=23 / scenecut=40 / intra_refresh=0 / rc_lookahead=40 / rc=crf / mbtree=1 / crf=18.0 / qcomp=0.60 / qpmin=10 / qpmax=69 / qpstep=4 / vbv_maxrate=40000 / vbv_bufsize=40000 / crf_max=0.0 / nal_hrd=none / ip_ratio=1.40 / aq=1:1.00
Audio
ID : 2
Format : DTS
Format/Info : Digital Theater Systems
Codec ID : A_DTS
Duration : 1h 38mn
Bit rate mode : Constant
Bit rate : 1 510 Kbps
Channel(s) : 6 channels
Channel positions : Front: L C R, Side: L R, LFE
Sampling rate : 48.0 KHz
Bit depth : 24 bits
Stream size : 1.04 GiB (4%)
Language : English

Скриншоты

Благодарности релизеру (0)

Торрент:

Статус:

Размер:

Зарегистрирован   [ 2012-09-07 11:53 ]

проверено

25.6 GB