Торренты   
 
 

 

Путешествие к Центру Земли в 3Д / Journey to the Center of the Earth 3D (Эрик Бревиг / Eric Brevig) [2008, BDrip, 1080p, Full OverUnder]

Рейтинг 3D:
197 голосов
8.7
Рейтинг фильма:
187 голосов
8.2
 
Вы должны быть авторизированы,
чтобы ставить оценки


Путешествие к Центру Земли / Journey to the Center of the Earth

Год выпуска: 2008
Страна: США
Жанр: фантастика, боевик, триллер, комедия, приключения,
Продолжительность: 01:32:34
Перевод: Профессиональный (дублированный)
Русские субтитры: нет
Режиссер на русском: Эрик Бревиг
Режиссер на английском: Eric Brevig
В ролях: Брендан Фрейзер, Джош Хатчерсон, Анита Брием, Сет Майерс, Жан Мишель Паре
Роли озвучивали: Пётр Иващенко, Дмитрий Череватенко, Татьяна Шитова
Описание: Пытаясь узнать о судьбе исчезнувшего брата, учёный, его племянник и их проводница открывают фантастичный и опасный затерянный мир в Центре Земли.
На встроенных ТВ-плейерах работать не будет!!!
Качество: BDrip
Контейнер: MKV
Формат 3D: OverUnder / Вертикальная стереопара
Порядок ракурсов: левый ракурс первый
Видео кодек: x264
Аудио кодек: AC3, DTS
Видео: AVC / 1920х2160 / 23,976 кадр/сек / 29,6 Мбит/сек
Аудио 1: Русский / AC3 / 48 KHz / 5.1 ch / 448 Kbps
Аудио 2: Английский / DTS / 48 KHz / 5.1 ch / 1510 Kbps

MediaInfo

General
Complete name : D:\3D Кинофильмы\Путешествие к центру земли (2008).mkv
Format : Matroska
File size : 20.8 GiB
Duration : 1h 32mn
Overall bit rate : 32.2 Mbps
Encoded date : UTC 2012-01-18 06:44:53
Writing application : mkvmerge v3.4.0 ('Rapunzel') сборка от May 15 2010 09:38:20
Writing library : libebml v0.8.0 + libmatroska v0.9.0
Video
ID : 1
Format : AVC
Format/Info : Advanced Video Codec
Format profile : High@L5.0
Format settings, CABAC : Yes
Format settings, ReFrames : 5 frames
Muxing mode : Container profile=Unknown@5.0
Codec ID : V_MPEG4/ISO/AVC
Duration : 1h 32mn
Bit rate : 29.6 Mbps
Width : 1 920 pixels
Height : 2 160 pixels
Display aspect ratio : 0.889
Frame rate : 23.976 fps
Color space : YUV
Chroma subsampling : 4:2:0
Bit depth : 8 bits
Scan type : Progressive
Bits/(Pixel*Frame) : 0.297
Stream size : 19.1 GiB (92%)
Writing library : x264 core 119 r2106 07efeb4
Encoding settings : cabac=1 / ref=5 / deblock=1:-3:-3 / analyse=0x3:0x113 / me=umh / subme=9 / psy=1 / psy_rd=1.00:0.15 / mixed_ref=1 / me_range=16 / chroma_me=1 / trellis=2 / 8x8dct=1 / cqm=0 / deadzone=21,11 / fast_pskip=1 / chroma_qp_offset=-3 / threads=6 / sliced_threads=0 / nr=0 / decimate=1 / interlaced=0 / bluray_compat=0 / constrained_intra=0 / bframes=4 / b_pyramid=2 / b_adapt=1 / b_bias=0 / direct=3 / weightb=1 / open_gop=0 / weightp=2 / keyint=250 / keyint_min=23 / scenecut=40 / intra_refresh=0 / rc_lookahead=40 / rc=crf / mbtree=1 / crf=18.0 / qcomp=0.60 / qpmin=10 / qpmax=69 / qpstep=4 / ip_ratio=1.40 / aq=1:1.00
Audio #1
ID : 2
Format : AC-3
Format/Info : Audio Coding 3
Mode extension : CM (complete main)
Codec ID : A_AC3
Duration : 1h 32mn
Bit rate mode : Constant
Bit rate : 448 Kbps
Channel(s) : 6 channels
Channel positions : Front: L C R, Side: L R, LFE
Sampling rate : 48.0 KHz
Bit depth : 16 bits
Stream size : 297 MiB (1%)
Language : Russian
Audio #2
ID : 3
Format : DTS
Format/Info : Digital Theater Systems
Codec ID : A_DTS
Duration : 1h 32mn
Bit rate mode : Constant
Bit rate : 1 510 Kbps
Channel(s) : 6 channels
Channel positions : Front: L C R, Side: L R, LFE
Sampling rate : 48.0 KHz
Bit depth : 16 bits
Stream size : 1 000 MiB (5%)
Language : English

Скриншоты

Остальные раздачи этого фильма (5)
Благодарности релизеру (16)

Торрент:

Статус:

Размер:

Зарегистрирован   [ 2012-01-18 13:46 ]

проверено

20.8 GB

 
 Мнение о фильме (63)

1, 2, 3, 4  След.






Огромное спасибо!!!! Два часа ночи. Начал смотреть - невозможно оторваться. Качество супер!!!! Постоянно из экрана что-то вылетает. Дубляж. В общем - полный кайф!!! ))))
 

спасибо!
вылет отличный
 

Глубина объема хорошая!
 

Большое Спасибо!!! 3D эффекты супер!!
 

Спасибо автору релиза. Да, фильм в плане 3D зачётный. Не то что современное 3Dермо!(не про все). Читал про фильм Хранитель времени 3D, обещают объём и эффекты на уровне Аватара http://www.kinopoisk.ru/level/1/film/462247/
 

Могу смело заявить - в этом фильме 3Д просто супееееееееееер!!!!!!!!!! Сценарий специально под 3Д эффекты подогнан!Тут вам и глубина и ВЫЛЕТЫ и картинка на весь экран, одним словом-БОМБА!!!! Залившему-РЕСПЕКТ И УВАЖУХА!!!! Всем СМЕЛО качайте и тащитесь! Проверено на LG 3D CINEMA (телек такой 42й) :-)))
 

Спасибо, фильм шикарен. Смотрел на ТВ филипс 3Д 7000 и ЛДЖИ 3Д проигрывателе, спецэффекты потрясающие. Я новичок и посмотрел в 3Д всего 10 фильмов и этот самый зрелещный. Остальные качал с этого же сайта но эффекты объёма не те, подскажите почему, а аватар так вообще только 2Д и усё. Спасибо за автору и остальным за ответ.
 

фильм просто супер максимальное количество вылетов 3D из существующих фильмов. хотя фильм и не новый. ЭТо пример для создания 3D мудакам крторые создали ДЖОНА КАРТЕРА в кором 3D ток в названии. Сейчас создатели не заморачиваются над созданием 3D, а просто втыкают его в название и пытаются этим срубить баблла. А этот фильм порадовал БАЛШОЙ РЕСПЕКТ раздаюшему и создателю!!!!!!!!!!!!!!!
 

Спасибо! Зачетные эффекты!
 

Спасибо за фильм!!!!Смотрел раньше в 2д но не думал что пересматривая фильм бду так сильно удивлён. Красота одним словом. 3д просто бомба. Такому фильму можно и медальку дать впринципе.
 

Yuragun
да, по сравнению с некоторыми другими фильмами 3D тут хорошее.
 

И фильм и 3D всё СУПЕР!!!
 

Да, что фильм смотрибельный, что 3D супер.
пы.сы. чего-то тормозило на сцене с плотом... кто-то подобное заметил?
 

как с вылетами дело обстоит народ?
 

Фильм супер! 3 Д просто отличное, аватар отдыхает) все такое объемное...
 

классный фильм, особенно жучок с усиками в начале! спасибо!!!!!!!!!!!!!
 
девочка на облаке Профиль 04-Мар-2013 21:42

фильм просто обалденный, 3D супер
 

Самый лучший фильм с 3d который я смотрел
 

Качество 3Д на высоте, фильм норм
 

3d хорошее сам фильм на один раз сойдет
 

Страница 1 из 4

1, 2, 3, 4  След.