Торренты   
 
 

 

Вверх / Up (Боб Питерсон, Пит Доктер) [2009 г., BDRip 1080p , Full OverUnder]

Рейтинг 3D:
32 голосов
8.4
Рейтинг фильма:
32 голосов
8.9
 
Вы должны быть авторизированы,
чтобы ставить оценки


- 2009
США
семейный, мультфильм
Дублированный
Боб Питерсон, Пит Доктер
01:36:06 -

Эдвард Эснер, Кристофер Пламмер, Джордан Нагаи, Боб Питерсон, Делрой Линдо, Джером Рэнфт, Джон Ратценбергер, Дэвид Кэй, Эли Доктер, Джереми Лири
-

78-летний ворчун Карл Фредриксен считает, что жизнь обходит его стороной. Чтобы сдержать обещание, данное своей почившей жене, он решает осуществить свою мечту о великом приключении,
привязав тысячи воздушных шариков к своему дому и улетев в дебри Южной Америки. Не пролетев и полмили, путешественник обнаруживает, что он ненароком прихватил с собой крайне разговорчивого и
неисправимо жизнерадостного 8-летнего мальчика по имени Рассел…
- OverUnder
AVC, h264, 1920х2160 , 23,976 кадр/сек, 14,4 Мбит/сек
Rus, AC-3, 6 каналов, 640 Кбит/сек, 48,0 КГц
Ukr, AC-3, 6 каналов, 640 Кбит/сек, 48,0 КГц
Eng, AC-3, 6 каналов, 640 Кбит/сек, 48,0 КГц -

Тык



Тык

Общее
Формат : Matroska
Размер файла : 11,2 Гбайт
Продолжительность : 1 ч. 36 м.
Общий поток : 16,6 Мбит/сек
Дата кодирования : UTC 2012-01-18 16:36:46
Программа кодирования : mkvmerge v3.4.0 ('Rapunzel') сборка от May 15 2010 09:38:20
Библиотека кодирования : libebml v0.8.0 + libmatroska v0.9.0
Видео
Идентификатор : 1
Формат : AVC
Формат/Информация : Advanced Video Codec
Профиль формата : High@L5.0
Параметр CABAC формата : Да
Параметр ReFrames формата : 4 кадры
Параметры GOP формата : M=1, N=32
Идентификатор кодека : V_MPEG4/ISO/AVC
Продолжительность : 1 ч. 36 м.
Битрейт : 14,4 Мбит/сек
Ширина : 1920 пикс.
Высота : 2160 пикс.
Соотношение сторон : 0,889
Частота кадров : 23,976 кадр/сек
Частота кадров в оригинале : 25,000 кадр/сек
Цветовое пространство : YUV
Подвыборка цветности : 4:2:0
Битовая глубина : 8 бит
Тип развёртки : Прогрессивная
Бит/(Пиксели*Кадры) : 0.145
Размер потока : 9,66 Гбайт (86%)
Библиотека кодирования : x264 core 120 r2145 748fe16
Настройки программы : cabac=1 / ref=4 / deblock=1:-2:-2 / analyse=0x3:0x113 / me=umh / subme=10 / psy=1 / psy_rd=1.00:0.00 / mixed_ref=1 / me_range=16 / chroma_me=1 / trellis=2 / 8x8dct=1 / cqm=0 / deadzone=21,11 / fast_pskip=1 / chroma_qp_offset=-3 / threads=9 / sliced_threads=0 / nr=0 / decimate=1 / interlaced=0 / bluray_compat=0 / constrained_intra=0 / bframes=6 / b_pyramid=0 / b_adapt=2 / b_bias=0 / direct=3 / weightb=1 / open_gop=0 / weightp=2 / keyint=250 / keyint_min=23 / scenecut=40 / intra_refresh=0 / rc_lookahead=40 / rc=crf / mbtree=1 / crf=18.0 / qcomp=0.60 / qpmin=0 / qpmax=69 / qpstep=4 / ip_ratio=1.40 / aq=1:1.00
Язык : English
Аудио #1
Идентификатор : 2
Формат : AC-3
Формат/Информация : Audio Coding 3
Расширение режима : CM (complete main)
Идентификатор кодека : A_AC3
Продолжительность : 1 ч. 36 м.
Вид битрейта : Постоянный
Битрейт : 640 Кбит/сек
Канал(ы) : 6 канала(ов)
Расположение каналов : Front: L C R, Side: L R, LFE
Частота : 48,0 КГц
Битовая глубина : 16 бит
Метод сжатия : С потерями
Размер потока : 440 Мбайт (4%)
Язык : Russian
Аудио #2
Идентификатор : 3
Формат : AC-3
Формат/Информация : Audio Coding 3
Расширение режима : CM (complete main)
Идентификатор кодека : A_AC3
Продолжительность : 1 ч. 36 м.
Вид битрейта : Постоянный
Битрейт : 640 Кбит/сек
Канал(ы) : 6 канала(ов)
Расположение каналов : Front: L C R, Side: L R, LFE
Частота : 48,0 КГц
Битовая глубина : 16 бит
Метод сжатия : С потерями
Размер потока : 440 Мбайт (4%)
Язык : Ukrainian
Аудио #3
Идентификатор : 4
Формат : AC-3
Формат/Информация : Audio Coding 3
Расширение режима : CM (complete main)
Идентификатор кодека : A_AC3
Продолжительность : 1 ч. 36 м.
Вид битрейта : Постоянный
Битрейт : 640 Кбит/сек
Канал(ы) : 6 канала(ов)
Расположение каналов : Front: L C R, Side: L R, LFE
Частота : 48,0 КГц
Битовая глубина : 16 бит
Метод сжатия : С потерями
Размер потока : 440 Мбайт (4%)
Язык : English
На встроенных ТВ-плейерах показывать НЕ будет!!!
Остальные раздачи этого фильма (3)
Благодарности релизеру (2)

Торрент:

Статус:

Размер:

Зарегистрирован   [ 2012-01-18 21:16 ]

проверено

11.18 GB

 
 Мнение о фильме (15)





Спасиба прикольный мульт)))
 

Собака просто душка!
Смотри.
 

все на отлично
 
АНДРЕЙЗ0Л0Т0К Профиль 19-Авг-2013 11:48

Качество на высоте!
 

Классный мульт.С удовольствием посмотрю в 3D
 

Классный мультик, детям нравится
 

Хороший семейный мульт
 

спасибо огромное класный мультик
 

Эффектов 3д почти нет, но от этого мультфильм не беднеет! Очень добрый и отличный мульт!
 

Интересный мультфильм. Рекомендуем посмотреть всей семьей!
 

Хороший мульт, 3D хорошее, только вылетов мало!
 

Все уже привыкли к вылетам, а их тут нет.
 

Классный мультик. Мне понравился.
 

отличный мульт!!!
 

класс