Торренты   
 
 


девушка из будуара / boudoir babe 3d side-by-side [SideBySide]

девушка из будуара / boudoir babe 3d side-by-side
Жанр: эротика
Перевод: Отсутствует[img]
[/img]

Формат 3d: SideBySide
Complete name : C:\Program Files (x86)\MediaInfo\Boudoir_Babe_3D_side_by_side.avi
Format : AVI
Format/Info : Audio Video Interleave
File size : 1.29 GiB
Duration : 1h 23mn
Overall bit rate : 2 207 Kbps
Writing library : VirtualDub-MPEG2 build 24586/release
Video
ID : 0
Format : MPEG-4 Visual
Format profile : Advanced Simple@L5
Format settings, BVOP : 2
Format settings, QPel : No
Format settings, GMC : No warppoints
Format settings, Matrix : Default (H.263)
Muxing mode : Packed bitstream
Codec ID : XVID
Codec ID/Hint : XviD
Duration : 1h 23mn
Bit rate : 1 811 Kbps
Width : 1 440 pixels
Height : 480 pixels
Display aspect ratio : 3.000
Frame rate : 29.970 fps
Color space : YUV
Chroma subsampling : 4:2:0
Bit depth : 8 bits
Scan type : Progressive
Compression mode : Lossy
Bits/(Pixel*Frame) : 0.087
Stream size : 1.06 GiB (82%)
Writing library : XviD 1.1.2 (UTC 2006-11-01)
Audio
ID : 1
Format : AC-3
Format/Info : Audio Coding 3
Mode extension : CM (complete main)
Codec ID : 2000
Duration : 1h 23mn
Bit rate mode : Constant
Bit rate : 384 Kbps
Channel(s) : 2 channels
Channel positions : Front: L R
Sampling rate : 48.0 KHz
Bit depth : 16 bits
Compression mode : Lossy
Stream size : 230 MiB (17%)
Alignment : Aligned on interleaves
Interleave, duration : 33 ms (1.00 video frame)
Interleave, preload duration : 512 ms
Порядок ракурсов: Параллельная пара
Boudoir_Babe_3D_side_by_side.avi.torrent
Торрент: Не зарегистрирован

Скачать

13 KB

Добавлен: 2012-01-19 08:49
Скачано: 2353 раз  [ Список скачавших ]
   
Комментарии:





Эротикой это сложно назвать - скорее просто ! :) Так что лучше перенести в соответствующий раздел, тут все-таки дети попадаются.
P.S. В том разделе уже есть, повтор.
 

а где этот раздел? ))
 

http://torrents3d.ru/viewtopic.php?t=2110 раздел здесь, надо вступить в группу чтоб его увидеть. После вступления в группу админ одобрит, так что не сразу раздел виден будет. Пока пусть немного по висит, потом перемещу, а то многие потеряли "!" раздел после того как его спрятали от случайных гостей и пользователей.
Ну и конечно оформление, где скрины, медиаинфо?
Похоже это мой древний рип:) И уже я его здесь выкладывал, так что повтор.
Есть оригинал Сенсио ДВД сай-бай-сайд анаморф мпег2, но качество не актуальное, на ракурс 360х480, смысл 2-3Гб выкладывать. Да, это !, причем уже ретро-классик:)
За долго до 3Д телевизоров и очков,
Снимали стерео ! семь дурачков:)
 

Спасибо за раздачу.
 

После закрытия основных ! разделов я все облазил в поисках ! группы или чего нибудь похожего, но так ни чего и не нашел :)
Вы бы хоть как нибудь по виднее сделали бы эти группы, а то ведь никто не найдет совсем
 

Да я уже админу не раз говорил чтоб на главной ссылку сделал, сам ищу эту тему про группу как в первый раз, причем уже раз 20-ть так не с первой попытки:) Судя по тому что в группе человек 200 из 39 тысяч пользователей, находят не все:) А большинство и не станет искать "того чего нет" если раньше не видели этот раздел когда он открытым был, либо не знают что здесь есть, либо если давно здесь, подумали что удалили с концами.
А так всё осталось как было, раздел ни куда не делся, только стал загибаться, мало раздающих стало и без новинок.
Прятали от поисковиков, чтоб не считали наш трекер ! ресурсом и не ограничили в поиске а то и не закрыли совсем.
 

Первый раз хотел посмотреть эротику в 3D, но не качается! Что делать?
 

Первый раз хотел посмотреть эротику в 3D, но не качается! Что делать?
Читать внимательно и зайти сюда: http://torrents3d.ru/viewtopic.php?t=2110 подать запрос и будет Вам эротическое счастье.
 

Спасибо! Пойду попробую.
 

Zagruzin
надеюсь теперь раздача правильная?есть скрин более или менее пристойный,и медиаинфо.
 

толя870 ошибаешься, друже... Все равно ничего не видно:) Да и Zagruzin этот фильм выкладывал уже несколько лет назад на другом трекере, да и тут он есть - в скрытом разделе :)
 

LEXX78
видно было но недолго,по недомыслию я удалил скрин вскоре сфотосервиса.потом заметил что всё и тут пропало.я на торрентах совсем недавно поэтому знать не мог.Да и опыт это первый,поэтому и волна такая поднялась.вопросов у меня больше крыши
 

ради интереса конвертировал в MKV 1280*720 HSBS полноэкранный ,проверил на LG 575S, получилось нормально,правда очень долго и размер стал больше
 

Palych
может подскажешь прогу которой риповать?у меня давно была ,удалил,название -забыл
 

Топик был перенесен из форума Фильмы в форум Архив

Zagruzin