Торренты   
 
 

 

LG 3D DEMO Global [2011г, HDrip, 1080p, Anamorph SideBySide]

Рейтинг 3D:
25 голосов
8.6
Рейтинг фильма:
22 голосов
7.3
 
Вы должны быть авторизированы,
чтобы ставить оценки


LG 3D DEMO Global
Год выпуска: 2011
Страна: Корея
Жанр: Демо
Продолжительность: 00:09:20
Описание: Демо ролик от LG.
Доп.информация: Продемонстрированы очень эффектные вылеты в замедленной съёмке.--Проверено на встроенном плейере ТВ Samsung UE-C7000--Формат 3d: Anamorph SideBySide
Порядок ракурсов: Параллельная пара
Качество: HDrip (копипаст релиза garb1983 с хорошо известного трекера)
Контейнер: mp4
Видео: AVC / 1920х1080p / 23,976 fps / 5316 Kbps
Аудио: AAC / 44,1 KHz / 2 ch / 151 Kbps

MediaInfo

General
Complete name : F:\Downloads\LG 3D DEMO Global.mp4
Format : MPEG-4
Format profile : Base Media / Version 2
Codec ID : mp42
File size : 365 MiB
Duration : 9mn 20s
Overall bit rate : 5 470 Kbps
Encoded date : UTC 2011-12-10 22:06:50
Tagged date : UTC 2011-12-10 22:06:50
gsst : 0
gstd : 560180
gssd : BD0419A83MH1326906337573989
gshh : r9.par03g07.c.youtube.com
Video
ID : 1
Format : AVC
Format/Info : Advanced Video Codec
Format profile : High@L4.0
Format settings, CABAC : Yes
Format settings, ReFrames : 1 frame
Codec ID : avc1
Codec ID/Info : Advanced Video Coding
Duration : 9mn 20s
Bit rate mode : Variable
Bit rate : 5 316 Kbps
Maximum bit rate : 14.3 Mbps
Width : 1 920 pixels
Height : 1 080 pixels
Display aspect ratio : 16:9
Frame rate mode : Constant
Frame rate : 23.976 fps
Color space : YUV
Chroma subsampling : 4:2:0
Bit depth : 8 bits
Scan type : Progressive
Bits/(Pixel*Frame) : 0.107
Stream size : 355 MiB (97%)
Tagged date : UTC 2011-12-10 22:06:52
Audio
ID : 2
Format : AAC
Format/Info : Advanced Audio Codec
Format version : Version 4
Format profile : LC
Codec ID : 40
Duration : 9mn 20s
Bit rate mode : Variable
Bit rate : 151 Kbps
Maximum bit rate : 226 Kbps
Channel(s) : 2 channels
Channel positions : Front: L R
Sampling rate : 44.1 KHz
Compression mode : Lossy
Stream size : 10.1 MiB (3%)
Title : IsoMedia File Produced by Google, 5-11-2011
Encoded date : UTC 2011-12-10 22:06:51
Tagged date : UTC 2011-12-10 22:06:52

Скриншоты

Благодарности релизеру (27)

Торрент:

Статус:

Размер:

Зарегистрирован   [ 2012-01-19 16:47 ]

проверено

365 MB