Торренты   
 
 

 

Как приручить дракона 3D / How to Train Your Dragon 3D (Трейлер №1 многоязычный) [2010 г., фэнтези, комедия, приключения, семейный, мультфильм, SeparateFiles BDremux+BDrip 1080p]

Рейтинг 3D:
1 голосов
10
Рейтинг фильма:
1 голосов
10
 
Вы должны быть авторизированы,
чтобы ставить оценки


Трейлер №1 в 3D многоязычный (включая русский дубляж)Формат 3D: SeparateFiles (Отдельные файлы для левого и правого ракурса) Год выпуска: 2010
Страна: DreamWorks Animation / Mad Hatter Entertainment / Mad Hatter Films / Vertigo Entertainment, США
Жанр: фэнтези, комедия, приключения, семейный, мультфильм
Продолжительность: 00:02:23
Перевод: Профессиональный (полное дублирование) + ещё 7 языков.-Премьера (мир): 18 марта 2010
Премьера (РФ): 18 марта 2010, «Централ Партнершип»
Релиз на DVD и Blu-Ray: Ноябрь 2010, «Юниверсал Пикчерс Рус»
Релиз на 3D Blu-Ray в США: 15 октября 2010, как эксклюзив для 3D-телевизоров от Samsung Electronics America-Режиссер: Дин ДеБлуа, Крис Сандерс
В ролях: Джей Барушель, Джерард Батлер, Крэйг Фергюсон, Америка Феррера, Джона Хилл, Кристофер Минц-Плассе, ТиДжей Миллер, Кристен Вииг, Робин Аткин Даунс, Филип МакГрейд, Кирон Эллиотт, Эшли Дженсен, Дэвид Теннант
Сценарий: Крессида Коуэлл, Дин ДеБлуа, Адам Ф. Голдберг, Крис Сэндерс, Питер Толан
Продюсер: Бонни Арнольд; Cопродюсер: Майкл А. Коннолли
Исполнительные продюсеры: Кристин Белсон, Тим Джонсон
Композитор: Джон Пауэлл
Описание фильма: Вы узнаете историю подростка Иккинга, которому не слишком близки традиции его героического племени, много лет ведущего войну с драконами. Мир Иккинга переворачивается с ног на голову, когда он неожиданно встречает дракона Беззубика, который поможет ему и другим викингам увидеть привычный мир с совершенно другой стороны…
-Описание раздачи: Трейлер мультфильма "Как приручить дракона" в Blu-Ray качестве и в честном 3D. Взят и раскодирован из первого 3D Blu-Ray диска "Monsters vs Aliens".
С помощью этого 3D-трейлера можно:
- Посмотреть и оценить качество 3D в мультфильме;
- Получить примерное представление о качестве картинки и качестве 3D будущего диска 3D Blu-Ray "Как приручить дракона", собственно это одна из основных задач трейлера на 3D Blu-Ray;
- Проверить и протестировать компьютер на возможность воспроизведения 3D Blu-Ray 1080p (двух видеопотоков 1080p с битрейтом как у Blu-Ray).
Дополнительная информация:
Трейлер представлен двумя видеофайлами с разными ракурсами в формате MKV (формат 3D - SeparateFiles). В одном видеофайле (How to Train Your Dragon 3D Trailer - Left BDremux.mkv) находится видеопоток левого ракурса и все звуковые дорожки, а в другом (How to Train Your Dragon 3D Trailer - Right BDrip.mkv) только видеопоток правого ракурса.

Как смотреть трейлер в 2D или в 3D

Если нужно просто посмотреть трейлер в 2D, то откройте видеофайл с левым ракурсом, так как в нём находятся все звуковые дорожки.
А для того, чтобы посмотреть трейлер в 3D, нужно использовать стереопроигрыватель, я рекомендую Stereoscopic Player, скачать который можно скачать здесь с сайта разработчика.
Для открытия 3D-трейлера нужно в стереопроигрывателе выбрать "Открыть правый и левый файл", а дальше соответственно указать путь к левому файлу (How to Train Your Dragon 3D Trailer - Left BDremux.mkv) и к правому (How to Train Your Dragon 3D Trailer - Right BDrip.mkv), для этого нужно нажать на "..." справа от пустых полей, затем выбрать в списке "Все файлы" для того, чтобы файлы с расширением MKV можно было выбрать, и выбрать нужный для левого или правого ракурса файл. Звуковые дорожки нужно брать из левого файла. Затем выберите метод просмотра. Для владельцев 3D мониторов и телевизоров нужно выбрать метод, соответствующий технологиям просмотра 3D в мониторе/телевизоре. Те, у кого нет 3D-мониторов/телевизоров, могут посмотреть 3D-трейлер в анаглифах (красно-голубых очках) или используя перекрёстный метод (скашивания глаз). Для просмотра с помощью перекрёстного метода нужно выбрать метод просмотра "Горизонтальная стереопара, Правый ракурс первый".
Внимание, для воспроизведения этого 3D-трейлера в стереопроигрывателе рекомендуется компьютер с четырёхъядерным процессором или же с двухъядерным, но с частотой не ниже 3,0 ГГц - так как в стереопроигрывателе должно проигрываться параллельно сразу два видеопотока с разрешением 1920х1080, суммарный битрейт видео которых составляет 47Mbps, что очень нагружает процессор.
На моём компьютере проблем с воспроизведением нет - загрузка процессора Intel Core 2 Quad Q9300 2.5 ГГц составляет 70-80%.

Советы по воспроизведению трейлера

Те, у кого тормозит или неправильно проигрывается 3D-трейлер при воспроизведении в стереопроигрывателе Stereoscopic Player, могут воспользоваться следующими советами:
- Зайдите в установки Stereoscopic Player и найдите слева вкладку "Декодер". В декодерах выберите MPEG 4 AVC Video Decoder и добавьте ffdshow Video Decoder (который обычно ставится вместе с пакетом кодеков K-lite Codec Pack) или какой-нибудь другой по вашему усмотрению. Владельцы видеокарт Nvidia с поддержкой технологии CUDA могут установить декодер CoreAVC и добавить уже его в MPEG 4 AVC Video Decoder вместо ffdshow Video Decoder - тогда воспроизведение будет осуществляться уже вычислительными мощностями видеокарты, а не процессора, что должно будет дать прирост производительности.
- 3D-трейлер может тормозить из-за недостаточной производительности жёсткого диска, поэтому если есть два разных физических носителя (например, диск и флешка или физически два жёстких диска), то можно попробовать переместить один из видеофайлов на другой физическии носитель и снова открыть 3D-трейлер в стереопроигрывателе.
- В крайнем случае можно попробовать конвертировать оба видеофайла, одинаково для каждого уменьшив разрешение и битрейт картинки так, чтобы исчезли тормоза при воспроизведении в стереопроигрывателе.
Второй ракурс видео, что был на 3D Blu-Ray сжат кодеком MVC, с помощью утилиты был раскодирован из MVC в чистое видео yuv и потом закодирован x264 с битрейтом равным битрейту первого ракурса. За утилиту для раскодирования MVC большое спасибо alexpk. Русскую дорожку в формате 5.1 сделал я сам, заменив центральную дорожку с английской речью на русскую из дублированного трейлера №1.-Левый ракурс:
Имя видеофайла: How to Train Your Dragon 3D Trailer - Left BDremux.mkv
Качество: BDremux
Формат: MKV
Видео кодек: H.264
Аудио кодек: AC3
Видео: MPEG4 Video (H264) 1920x1080 23.976fps 23,6Mbps High@L4.1 English, Left
Аудио 1: English (English) Dolby AC3 48000Hz 5.1 640 Kbps
Аудио 2: Russian (Русский) Dolby AC3 48000Hz 5.1 640 Kbps
Аудио 3: German (Deutsch) Dolby AC3 48000Hz 5.1 640 Kbps
Аудио 4: Spanish (Español) Dolby AC3 48000Hz 5.1 640 Kbps
Аудио 5: French (Français) Dolby AC3 48000Hz 5.1 640 Kbps
Аудио 6: Italian (Italiano) Dolby AC3 48000Hz 5.1 640 Kbps
Аудио 7: Korean (한국어) Dolby AC3 48000Hz 5.1 640 Kbps
Аудио 8: Portuguese (Português) Dolby AC3 48000Hz 5.1 640 Kbps

MediaInfo

General
Complete name : C:\Users\Андрей\Desktop\How to Train Your Dragon 3D Trailer - Left BDremux.mkv
Format : Matroska
File size : 503 MiB
Duration : 2mn 23s
Overall bit rate : 29.3 Mbps
Movie name : How to Train Your Dragon 3D Trailer №1
Encoded date : UTC 2010-05-31 10:24:00
Writing application : mkvmerge v3.3.0 ('Language') built on Mar 24 2010 14:59:24
Writing library : libebml v0.8.0 + libmatroska v0.9.0
Video
ID : 1
Format : AVC
Format/Info : Advanced Video Codec
Format profile : High@L4.1
Format settings, CABAC : Yes
Format settings, ReFrames : 3 frames
Muxing mode : Container profile=Unknown@4.1
Codec ID : V_MPEG4/ISO/AVC
Duration : 2mn 23s
Bit rate : 23.6 Mbps
Width : 1 920 pixels
Height : 1 080 pixels
Display aspect ratio : 16:9
Frame rate : 23.976 fps
Standard : NTSC
Color space : YUV
Chroma subsampling : 4:2:0
Bit depth : 8 bits
Scan type : Progressive
Bits/(Pixel*Frame) : 0.475
Stream size : 405 MiB (81%)
Title : Left - BDremux
Language : English
Audio #1
ID : 2
Format : AC-3
Format/Info : Audio Coding 3
Mode extension : CM (complete main)
Codec ID : A_AC3
Duration : 2mn 23s
Bit rate mode : Constant
Bit rate : 640 Kbps
Channel(s) : 6 channels
Channel positions : Front: L C R, Side: L R, LFE
Sampling rate : 48.0 KHz
Stream size : 11.0 MiB (2%)
Title : English, 5.1, 640 Kbps
Language : English
Audio #2
ID : 3
Format : AC-3
Format/Info : Audio Coding 3
Mode extension : CM (complete main)
Codec ID : A_AC3
Duration : 2mn 23s
Bit rate mode : Constant
Bit rate : 640 Kbps
Channel(s) : 6 channels
Channel positions : Front: L C R, Side: L R, LFE
Sampling rate : 48.0 KHz
Stream size : 11.0 MiB (2%)
Title : Русский, 5.1, 640 Kbps
Language : Russian
Audio #3
ID : 4
Format : AC-3
Format/Info : Audio Coding 3
Mode extension : CM (complete main)
Codec ID : A_AC3
Duration : 2mn 23s
Bit rate mode : Constant
Bit rate : 640 Kbps
Channel(s) : 6 channels
Channel positions : Front: L C R, Side: L R, LFE
Sampling rate : 48.0 KHz
Stream size : 11.0 MiB (2%)
Title : Deutsch, 5.1, 640 Kbps
Language : German
Audio #4
ID : 5
Format : AC-3
Format/Info : Audio Coding 3
Mode extension : CM (complete main)
Codec ID : A_AC3
Duration : 2mn 23s
Bit rate mode : Constant
Bit rate : 640 Kbps
Channel(s) : 6 channels
Channel positions : Front: L C R, Side: L R, LFE
Sampling rate : 48.0 KHz
Stream size : 11.0 MiB (2%)
Title : Español, 5.1, 640 Kbps
Language : Spanish
Audio #5
ID : 6
Format : AC-3
Format/Info : Audio Coding 3
Mode extension : CM (complete main)
Codec ID : A_AC3
Duration : 2mn 23s
Bit rate mode : Constant
Bit rate : 640 Kbps
Channel(s) : 6 channels
Channel positions : Front: L C R, Side: L R, LFE
Sampling rate : 48.0 KHz
Stream size : 11.0 MiB (2%)
Title : Français, 5.1, 640 Kbps
Language : French
Audio #6
ID : 7
Format : AC-3
Format/Info : Audio Coding 3
Mode extension : CM (complete main)
Codec ID : A_AC3
Duration : 2mn 23s
Bit rate mode : Constant
Bit rate : 640 Kbps
Channel(s) : 6 channels
Channel positions : Front: L C R, Side: L R, LFE
Sampling rate : 48.0 KHz
Stream size : 11.0 MiB (2%)
Title : Italiano, 5.1, 640 Kbps
Language : Italian
Audio #7
ID : 8
Format : AC-3
Format/Info : Audio Coding 3
Mode extension : CM (complete main)
Codec ID : A_AC3
Duration : 2mn 23s
Bit rate mode : Constant
Bit rate : 640 Kbps
Channel(s) : 6 channels
Channel positions : Front: L C R, Side: L R, LFE
Sampling rate : 48.0 KHz
Stream size : 11.0 MiB (2%)
Title : 한국어, 5.1, 640 Kbps
Language : Korean
Audio #8
ID : 9
Format : AC-3
Format/Info : Audio Coding 3
Mode extension : CM (complete main)
Codec ID : A_AC3
Duration : 2mn 23s
Bit rate mode : Constant
Bit rate : 640 Kbps
Channel(s) : 6 channels
Channel positions : Front: L C R, Side: L R, LFE
Sampling rate : 48.0 KHz
Stream size : 11.0 MiB (2%)
Title : Português, 5.1, 640 Kbps
Language : Portuguese

Скриншоты левого ракурса

-Правый ракурс:
Имя видеофайла: How to Train Your Dragon 3D Trailer - Right BDrip.mkv
Качество: BDrip
Формат: MKV
Видео кодек: H.264
Видео: MPEG4 Video (H264) 1920x1080 23.976fps 23,1Mbps High@L4.1 English, Right

MediaInfo

General
Complete name : C:\Users\Андрей\Desktop\How to Train Your Dragon 3D Trailer - Right BDrip.mkv
Format : Matroska
File size : 403 MiB
Duration : 2mn 23s
Overall bit rate : 23.5 Mbps
Movie name : How to Train Your Dragon 3D Trailer №1
Encoded date : UTC 2010-05-31 10:27:30
Writing application : mkvmerge v3.3.0 ('Language') built on Mar 24 2010 14:59:24
Writing library : libebml v0.8.0 + libmatroska v0.9.0
Video
ID : 1
Format : AVC
Format/Info : Advanced Video Codec
Format profile : High@L4.1
Format settings, CABAC : Yes
Format settings, ReFrames : 3 frames
Muxing mode : Container profile=Unknown@4.1
Codec ID : V_MPEG4/ISO/AVC
Duration : 2mn 23s
Bit rate : 23.1 Mbps
Nominal bit rate : 24.6 Mbps
Width : 1 920 pixels
Height : 1 080 pixels
Display aspect ratio : 16:9
Frame rate : 23.976 fps
Original frame rate : 25.000 fps
Color space : YUV
Chroma subsampling : 4:2:0
Bit depth : 8 bits
Scan type : Progressive
Bits/(Pixel*Frame) : 0.464
Stream size : 395 MiB (98%)
Title : Right - BDrip
Writing library : x264 core 65 r1074M b6bb3d4
Encoding settings : cabac=1 / ref=3 / deblock=1:0:0 / analyse=0x3:0x133 / me=esa / subme=9 / psy_rd=1.0:0.0 / mixed_ref=1 / me_range=16 / chroma_me=0 / trellis=2 / 8x8dct=1 / cqm=0 / deadzone=21,11 / chroma_qp_offset=-2 / threads=4 / nr=0 / decimate=1 / mbaff=0 / bframes=16 / b_pyramid=1 / b_adapt=1 / b_bias=0 / direct=3 / wpredb=1 / keyint=250 / keyint_min=25 / scenecut=40(pre) / rc=2pass / bitrate=24560 / ratetol=1.0 / qcomp=0.60 / qpmin=10 / qpmax=51 / qpstep=4 / cplxblur=20.0 / qblur=0.5 / ip_ratio=1.41 / pb_ratio=1.25 / aq=1:1.00
Language : English

Скриншоты правого ракурса

-

Стереоскриншоты

Скриншоты сделаны с одинаковыми по времени кадрами из двух видеоракурсов и соединены для просмотра в перекрёстной стереопаре. Эти скриншоты можно смотреть перекрёстным методом, кроме того их можно открыть в Stereoscopic Player (попеременная пара, правый ракурс первый) или 3D-просмотрщике изображении для просмотра в 3D любым доступным методом.

В анаглифе

Эти же скриншоты для быстрого просмотра в анаглифах (красно-голубые очки).
Благодарности релизеру (0)

Торрент:

Статус:

Размер:

Зарегистрирован   [ 2010-06-10 23:54 ]

проверено

906 MB