Торренты   
 
 

 

Вторая мировая война в 3D / World War II in 3D [2011 г., BDrip, 1080p, Anamorph OverUnder]

Рейтинг 3D:
1 голосов
9.0
Рейтинг фильма:
Пока никто не голосовал
 
Вы должны быть авторизированы,
чтобы ставить оценки


Вторая мировая война в 3D
World War II in 3D

Год выпуска: 2011
Страна: США
Жанр: документальный
Продолжительность: 00:44:00
Перевод:Двухголосый закадровый-Над фильмом работали:
Луис Тарантино, Дуглас Кохен, Габриэль Ротелло, Свен Биркемайер, Тим Эванс, Кристина Хансен, Кевин Браун, Дион Лабриола, Мэнни Мадла, Том Уилкинсон, Том Коллинс, Джоэл Франклин и др.-Описание:
Документальный фильм Вторая мировая война в 3D рассказывает историю 2-й мировой войны от ее развязывания нацистской Германией и развертке по всей Европе до контрнаступления Союзников и падения нацистской Германии. Впервые, вы увидите, драматические моменты Второй мировой войны в 3D снятые на стереограф, которые до сих пор были закрыты в секретных архивах. Этот грандиозный архив 3D фотографий включает в себя снимки разведки Союзников, коллекцию изображений и документов о взлете и падение Третьего Рейха, фотографии, тайно сделанные в оккупированной Франции, также имеется реальная 3D кинопленка, снятая нацистами в 1943 году. Фильм создает абсолютно реалистичную трехмерную картину крупнейшего кровопролитного конфликта в истории.
Доп.информация:
За перевод и озвучивание спасибо HDclub и сервису "Озвучивание". Спонсоры: byurger, ork2010, sim2rtx, DobermanHD, levanevski, maxys, a1ex11, same555, kimi, Atlantis- -Качество: BDrip
Контейнер: MKV
Формат 3D: Anamorph OverUnder / Вертикальная анаморфная стереопара
Видео кодек: x264
Аудио кодек: AC3
Видео: AVC, h264, 1920x1080, 23.976 кадр/сек, 10,7 Мбит/сек
Аудио 1: русский; AC3, 6 каналов, 640 Кбит/сек, 48,0 КГц (Двухголосый закадровый)
Аудио 2: английский; AC3, 6 каналов, 640 Кбит/сек, 48,0 КГц (Оригинал)
Субтитры: английские (отдельно на Narod.Ru)

СКРИНШОТЫ

MI

Общее
Уникальный идентификатор : 214286310042231928491670948521771698315 (0xA1360AC8431D69898D06C2991692888B)
Полное имя : D:\3D-RuGroup\WorldWarII.3D.2011.BD3DRip.Half.OU.x264.AC3.Rus.Eng.El.mkv
Формат : Matroska
Версия формата : Version 2
Размер файла : 3,75 Гбайт
Продолжительность : 44 м.
Общий поток : 12,2 Мбит/сек
Название фильма : WorldWarII.3D.2011.BD3DRip.Half.OU.x264.AC3.Eng
Дата кодирования : UTC 2012-02-13 13:47:31
Программа кодирования : mkvmerge v3.4.0 ('Rapunzel') сборка от May 15 2010 09:38:20
Библиотека кодирования : libebml v0.8.0 + libmatroska v0.9.0
Видео
Идентификатор : 1
Формат : AVC
Формат/Информация : Advanced Video Codec
Профиль формата : High@L4.0
Параметр CABAC формата : Да
Параметр ReFrames формата : 4 кадра
Идентификатор кодека : V_MPEG4/ISO/AVC
Продолжительность : 44 м.
Битрейт : 10,7 Мбит/сек
Ширина : 1920 пикселей
Высота : 1080 пикселей
Соотношение сторон : 16:9
Частота кадров : 23,976 кадра/сек
Цветовое пространство : YUV
Субдискретизация насыщенности : 4:2:0
Битовая глубина : 8 бит
Тип развёртки : Прогрессивная
Бит/(Пиксели*Кадры) : 0.214
Размер потока : 3,28 Гбайт (87%)
Заголовок : Rip by itsamna (aka elephant AnTo}{@)
Библиотека кодирования : x264 core 116 r2074 2641b9e
Настройки программы : cabac=1 / ref=4 / deblock=1:-3:-3 / analyse=0x3:0x133 / me=umh / subme=9 / psy=1 / psy_rd=1.00:0.15 / mixed_ref=1 / me_range=24 / chroma_me=1 / trellis=2 / 8x8dct=1 / cqm=0 / deadzone=21,11 / fast_pskip=0 / chroma_qp_offset=-3 / threads=3 / sliced_threads=0 / nr=0 / decimate=1 / interlaced=0 / bluray_compat=0 / constrained_intra=0 / bframes=6 / b_pyramid=2 / b_adapt=2 / b_bias=0 / direct=3 / weightb=1 / open_gop=0 / weightp=2 / keyint=250 / keyint_min=23 / scenecut=40 / intra_refresh=0 / rc_lookahead=40 / rc=crf / mbtree=1 / crf=18.0 / qcomp=0.70 / qpmin=10 / qpmax=69 / qpstep=4 / ip_ratio=1.40 / aq=1:0.70
Default : Да
Forced : Нет
Аудио #1
Идентификатор : 2
Формат : AC-3
Формат/Информация : Audio Coding 3
Расширение режима : CM (complete main)
Идентификатор кодека : A_AC3
Продолжительность : 44 м.
Вид битрейта : Постоянный
Битрейт : 640 Кбит/сек
Каналы : 6 каналов
Расположение каналов : Front: L C R, Side: L R, LFE
Частота : 48,0 КГц
Битовая глубина : 16 бит
Метод сжатия : С потерями
Размер потока : 202 Мбайт (5%)
Заголовок : VO AC3 5.1 640 Kbps
Язык : Russian
Default : Да
Forced : Нет
Аудио #2
Идентификатор : 3
Формат : AC-3
Формат/Информация : Audio Coding 3
Расширение режима : CM (complete main)
Идентификатор кодека : A_AC3
Продолжительность : 44 м.
Вид битрейта : Постоянный
Битрейт : 640 Кбит/сек
Каналы : 6 каналов
Расположение каналов : Front: L C R, Side: L R, LFE
Частота : 48,0 КГц
Битовая глубина : 16 бит
Метод сжатия : С потерями
Размер потока : 202 Мбайт (5%)
Заголовок : Original AC3 5.1 640 Kbps
Язык : English
Default : Нет
Forced : Нет
Меню
00:00:00.000 : :Powerful imagery
00:13:09.038 : :Triumphant Austrian tour
00:19:39.220 : :Record of destruction
00:27:59.469 : :Unique footage
00:35:14.654 : :Tragic consequences
Благодарности релизеру (6)

Торрент:

Статус:

Размер:

Зарегистрирован   [ 2012-02-13 18:25 ]

проверено

3.75 GB