Торренты   
 
 

 

Азоры 3Д. Исследователи, киты, вулканы / Azores 3D: Explorers, Whales, Volcanoes [2011г, BDrip, 1080p, Anamorph OverUnder]

Рейтинг 3D:
2 голосов
8.5
Рейтинг фильма:
2 голосов
8.0
 
Вы должны быть авторизированы,
чтобы ставить оценки


Азорские острова (3 диска)Azores (3 Discs)
Год выпуска: 2011
Страна: Германия (New KSM)
Жанр: Документальный, Видовой
Продолжительность: 02:41:39 (00:52:26 + 00:53:55 + 00:55:18)
Перевод: Профессиональный дублированный
Режиссёр: Норберт Вандер / Norbert Vander
Продюсер: Бенджамин Краузе / Benjamin Krause
Описание: Фильм рассказывает об удивительных фактах флоры и фауны уникальных Азорских островов и отправляет зрителя в путешествие по местам отдыха акул, китов, гигантских морских скатов и огромных стай всевозможных рыб. Архипелаг, состоящий из семи островов в середине Атлантического океана, на полпути между континентами Европы и Америки, завораживает уникальным пейзажем, сочетающим черноту застывшей лавы, синеву озер, заполнивших кратеры вулканов и буйство красок экзотических растений. Азоры — это настоящий рай для любителей дайвинга и последний нетронутый уголок Европы.
Файл#1 - Azores. Sharks, Whales, Manta Rays (Азорские острова. Акулы, киты, скаты)
Файл#2 - Azores. Discovers, Whales, Volcanoes (Азорские острова. Открытия, киты, вулканы)
Файл#3 - Azores. People, Fauna, Lifestyle (Азорские острова. Люди, фауна, стиль жизни)-- .
Проверено на встроенном плейере ТВ Samsung UE-C7000
--Формат 3D: Anamorph OverUnder
Качество: BDrip
Контейнер: MKV-Видео: AVC / 23,976 fps / 1920х1080p / 11.3; 9.8; 10.9 Mbps
Аудио:
#1 - Русский / AC3 / 48 KHz / 5.1 ch / 384; 448; 448 Kbps (BD 3D - Rus)
#2 - Английский / AC3 / 48 KHz / 5.1 ch / 640 Kbps
Субтитры: Отсутствуют

MediaInfo. Файл#1 (второй и третий отличаются только битрейтами)

General
Unique ID : 220174336792013283113348543624021970215 (0xA5A408EA0D0A2A709368001D3D928D27)
Complete name : G:\Downloads\Azores.3Discs(3D)2011.halfOU(ash61)\Azores.Disc1.Sharks,Whales,MantaRays(3D)2011.halfOU(ash61).mkv
Format : Matroska
Format version : Version 2
File size : 4.61 GiB
Duration : 52mn 26s
Overall bit rate : 12.6 Mbps
Movie name : Azoren. Disc1 (3D) 2011 (Ash61)
Encoded date : UTC 2012-11-01 14:43:56
Writing application : mkvmerge v5.8.0 ('No Sleep / Pillow') built on Sep 2 2012 15:37:04
Writing library : libebml v1.2.3 + libmatroska v1.3.0
Video
ID : 1
Format : AVC
Format/Info : Advanced Video Codec
Format profile : High@L4.1
Format settings, CABAC : Yes
Format settings, ReFrames : 4 frames
Codec ID : V_MPEG4/ISO/AVC
Duration : 52mn 26s
Bit rate : 11.3 Mbps
Width : 1 920 pixels
Height : 1 080 pixels
Display aspect ratio : 16:9
Frame rate mode : Constant
Frame rate : 23.976 fps
Color space : YUV
Chroma subsampling : 4:2:0
Bit depth : 8 bits
Scan type : Progressive
Bits/(Pixel*Frame) : 0.228
Stream size : 4.14 GiB (90%)
Title : BDrip by Ash61
Writing library : x264 core 119 r2106 07efeb4
Encoding settings : cabac=1 / ref=4 / deblock=1:-3:-3 / analyse=0x3:0x113 / me=umh / subme=9 / psy=1 / psy_rd=1.00:0.15 / mixed_ref=1 / me_range=16 / chroma_me=1 / trellis=2 / 8x8dct=1 / cqm=0 / deadzone=21,11 / fast_pskip=1 / chroma_qp_offset=-3 / threads=3 / sliced_threads=0 / nr=0 / decimate=1 / interlaced=0 / bluray_compat=0 / constrained_intra=0 / bframes=6 / b_pyramid=2 / b_adapt=2 / b_bias=0 / direct=3 / weightb=1 / open_gop=0 / weightp=2 / keyint=250 / keyint_min=23 / scenecut=40 / intra_refresh=0 / rc_lookahead=60 / rc=crf / mbtree=1 / crf=18.0 / qcomp=0.70 / qpmin=0 / qpmax=69 / qpstep=4 / vbv_maxrate=40000 / vbv_bufsize=40000 / crf_max=0.0 / nal_hrd=none / ip_ratio=1.40 / aq=1:0.70
Language : German
Default : Yes
Forced : No
Audio #1
ID : 2
Format : AC-3
Format/Info : Audio Coding 3
Mode extension : CM (complete main)
Format settings, Endianness : Big
Codec ID : A_AC3
Duration : 52mn 26s
Bit rate mode : Constant
Bit rate : 384 Kbps
Channel(s) : 6 channels
Channel positions : Front: L C R, Side: L R, LFE
Sampling rate : 48.0 KHz
Bit depth : 16 bits
Compression mode : Lossy
Stream size : 144 MiB (3%)
Title : Дубляж - Кармен Видео
Language : Russian
Default : Yes
Forced : No
Audio #2
ID : 3
Format : AC-3
Format/Info : Audio Coding 3
Mode extension : CM (complete main)
Format settings, Endianness : Big
Codec ID : A_AC3
Duration : 52mn 26s
Bit rate mode : Constant
Bit rate : 640 Kbps
Channel(s) : 6 channels
Channel positions : Front: L C R, Side: L R, LFE
Sampling rate : 48.0 KHz
Bit depth : 16 bits
Compression mode : Lossy
Stream size : 240 MiB (5%)
Language : English
Default : No
Forced : No
Menu
00:00:00.000 : :1
00:10:59.993 : :2
00:33:05.734 : :3
00:46:46.971 : :4
00:51:29.962 : :5

Скриншоты

Для оценки качества 3д: Анимация

Для оценки качества 3д: Чёрно-белый анаглиф

2.11.2012 - Релиз обновлён - Добавлены русские дороги.
Желающие, скачайте заново торрент-файл.
Благодарности релизеру (13)

Торрент:

Статус:

Размер:

Зарегистрирован   [ 2012-11-02 20:40 ]

проверено

13.52 GB