Торренты   
 
 


Москва 3д / moscow_3d-lr (Глинка) [SideBySide]

Рейтинг 3D:
Пока никто не голосовал
Рейтинг фильма:
Пока никто не голосовал
 
Вы должны быть авторизированы,
чтобы ставить оценки


Москва 3д / moscow_3d-lr
Страна: россия
Жанр: документальный
Режиссер:Романов Ярослав
Формат 3d: SideBySide
[
Format : AVI
Format/Info : Audio Video Interleave
File size : 734 MiB
Duration : 27mn 17s
Overall bit rate : 3 759 Kbps
Writing library : VirtualDub build 32706/release
Video
ID : 0
Format : MPEG-4 Visual
Format profile : Advanced Simple@L5
Format settings, BVOP : 2
Format settings, QPel : No
Format settings, GMC : No warppoints
Format settings, Matrix : Default (H.263)
Muxing mode : Packed bitstream
Codec ID : XVID
Codec ID/Hint : XviD
Duration : 27mn 17s
Bit rate : 3 589 Kbps
Width : 1 920 pixels
Height : 1 080 pixels
Display aspect ratio : 16:9
Frame rate : 25.000 fps
Color space : YUV
Chroma subsampling : 4:2:0
Bit depth : 8 bits
Scan type : Progressive
Compression mode : Lossy
Bits/(Pixel*Frame) : 0.069
Stream size : 701 MiB (95%)
Writing library : XviD 1.2.1 (UTC 2008-12-04)
Audio
ID : 1
Format : MPEG Audio
Format version : Version 1
Format profile : Layer 3
Mode : Joint stereo
Mode extension : MS Stereo
Codec ID : 55
Codec ID/Hint : MP3
Duration : 27mn 17s
Bit rate mode : Constant
Bit rate : 160 Kbps
Channel(s) : 2 channels
Sampling rate : 48.0 KHz
Compression mode : Lossy
Stream size : 31.2 MiB (4%)
Alignment : Split accross interleaves
Interleave, duration : 40 ms (1.00 video frame)
Interleave, preload duration : 500 ms
b]Порядок ракурсов
: Параллельная пара
Комментарии:





Режиссер: Глинка
:) Я что ли? Я вроде такого не снимал, или однофамилец конкурент появился?
 

Zagruzin
не знаю .это я учусь создавать раздачу,ни чего не получается.инструкции довольно путанные
 

Учитесь на одной раздаче, нажимая "изменить" (редактировать). Вот в тексте образец раздачи, если его полностью скопировать (удалив мои подсказки после ***) и вставить увидете эту раздачу http://torrents3d.ru/viewtopic.php?t=885 по аналогии смотрите какие теги [......] за что отвечают, измените все данные под свою раздачу и замените ссылки на скриншоты. то что с *** стереть, это мои пояснения.
Но лучше сразу по готовому шаблону создавать чтоб теги не изучать.
Код:
[size=24]Риф 3Д / The Reef 3D[/size]  **** большой размер шрифта
[img=right]http://i11.fastpic.ru/big/2010/1221/7e/f554402dd114090052b54f295d91077e.jpg[/img]   ***Вставить обложку и сдвинуть вправо
[b]Год выпуска[/b]: 2010
[b]Жанр[/b]: Документальный, видовой
[b]Продолжительность[/b]: 00:27:00
[b]Перевод[/b]: Отсутствует
[b]Описание[/b]: Просто красивый научно-популярный фильм о рифе в Белизе.
[b]Формат 3d[/b]: Anamorph SideBySide
[b]Порядок ракурсов[/b]: Параллельная пара
[b]Качество:[/b] HDTVRip (by [b]gmouse[/b])
[b]Формат:[/b] MKV
[b]Видео:[/b] AVC / 1920x1080i / 23.976fps / 5404 Kbps
[b]Аудио [eng]:[/b] AC3 / 2 ch / 384 Kbps / 48 KHz
[spoiler="MediaInfo"]  ***вставить медиаинфо и убрать под спойлер
General
Complete name                    : O:\Downloads\The Reef 3D.1080p.anmf.mkv
Format                           : Matroska
File size                        : 1.09 GiB
Duration                         : 27mn 0s
Overall bit rate                 : 5 786 Kbps
Encoded date                     : UTC 2010-12-11 07:26:00
Writing application              : mkvmerge v4.3.0 ('Escape from the Island') built on Sep  5 2010 10:30:51
Writing library                  : libebml v1.0.0 + libmatroska v1.0.0
Video
ID                               : 1
Format                           : AVC
Format/Info                      : Advanced Video Codec
Format profile                   : High@L4.0
Format settings, CABAC           : Yes
Format settings, ReFrames        : 4 frames
Codec ID                         : V_MPEG4/ISO/AVC
Duration                         : 27mn 0s
Bit rate                         : 5 404 Kbps
Width                            : 1 920 pixels
Height                           : 1 080 pixels
Display aspect ratio             : 16:9
Frame rate                       : 25.000 fps
Color space                      : YUV
Chroma subsampling               : 4:2:0
Bit depth                        : 8 bits
Scan type                        : Progressive
Bits/(Pixel*Frame)               : 0.104
Stream size                      : 1 021 MiB (91%)
Writing library                  : x264 core 105 r1724 b02df7b
Encoding settings                : cabac=1 / ref=3 / deblock=1:0:0 / analyse=0x3:0x113 / me=hex / subme=7 / psy=1 / psy_rd=1.00:0.00 / mixed_ref=1 / me_range=16 / chroma_me=1 / trellis=1 / 8x8dct=1 / cqm=0 / deadzone=21,11 / fast_pskip=1 / chroma_qp_offset=-2 / threads=3 / sliced_threads=0 / nr=0 / decimate=1 / interlaced=0 / constrained_intra=0 / bframes=3 / b_pyramid=2 / b_adapt=1 / b_bias=0 / direct=1 / weightb=1 / open_gop=0 / weightp=2 / keyint=250 / keyint_min=25 / scenecut=40 / intra_refresh=0 / rc_lookahead=40 / rc=2pass / mbtree=1 / bitrate=5404 / ratetol=1.0 / qcomp=0.60 / qpmin=10 / qpmax=51 / qpstep=4 / cplxblur=20.0 / qblur=0.5 / ip_ratio=1.40 / aq=1:1.00
Audio
ID                               : 2
Format                           : AC-3
Format/Info                      : Audio Coding 3
Mode extension                   : CM (complete main)
Codec ID                         : A_AC3
Duration                         : 27mn 0s
Bit rate mode                    : Constant
Bit rate                         : 384 Kbps
Channel(s)                       : 2 channels
Channel positions                : Front: L R
Sampling rate                    : 48.0 KHz
Bit depth                        : 16 bits
Stream size                      : 74.2 MiB (7%)
Language                         : English
[/spoiler]
[spoiler="Скриншоты (превью с кликом)"]   *** Вставить прямые ссылки на скриншоты и убрать под спойлер
[URL=http://fastpic.ru/view/4/2010/1221/18674e5ce260467995b2648ee9e3968f.png.html][img]http://i4.fastpic.ru/thumb/2010/1221/8f/18674e5ce260467995b2648ee9e3968f.jpeg[/img][/URL][URL=http://fastpic.ru/view/4/2010/1221/7574d46f48ed402efbc47711e271742c.png.html][img]http://i4.fastpic.ru/thumb/2010/1221/2c/7574d46f48ed402efbc47711e271742c.jpeg[/img][/URL][URL=http://fastpic.ru/view/4/2010/1221/58d2ad3e4ca5e5deddc80d898a5158e1.png.html][img]http://i4.fastpic.ru/thumb/2010/1221/e1/58d2ad3e4ca5e5deddc80d898a5158e1.jpeg[/img][/URL]
[/spoiler]
 

ещё менее понял.Удивляюсь как я зарегистрироваться сумел.спасибо что проявили внимание
 

Ну тогда так http://torrents3d.ru/viewtopic.php?t=57 тут ума не надо, заполнить бланк:) самое сложное это уметь извлечь медиоинфо http://torrents3d.ru/viewtopic.php?t=962 и залить картинки http://torrents3d.ru/viewtopic.php?t=105 на любой фотохостинг и вставить ссылки на эти фото.
 

Zagruzin
картинки обязательны?и можно ли обойтись без медиаинфо,если содержание и так очевидно?
 

Zagruzin
и самое главное как удалить неудачную попытку?
 

Скриншоты обязательны. Медиаинфо тоже.
и можно ли обойтись без медиаинфо,если содержание и так очевидно?
Как же очевидно, по одному названию Москва 3д / moscow_3d-lr ни чего не понятно, при чем здесь Lr в названии - левый/правый, раздельные ракурсы а не стереопара? Ни разрешения, ни про что ролик и наверняка здесь это уже есть раз автор yar (Ярослав), он здесь лично выкладывает свои ролики, причем в "Любительское видео" и раздел ещё не тот "Документальные".
ПС: Удалить ни как, только модераторам за вами подметать. Редактируйте одну раздачу пока не получится, не создавайте новых.
 

принято
 

Топик был перенесен из форума Документальные фильмы в форум Архив

Zagruzin