Торренты   
 
 


IMAX. Серфинг на Таити в 3Д / The Ultimate Wave: Tahiti - IMAX 3D (Стивен Лоу / Steven Lowe) [2010, BDrip, 1080p, Full OverUnder]

Рейтинг 3D:
Пока никто не голосовал
Рейтинг фильма:
Пока никто не голосовал
 
Вы должны быть авторизированы,
чтобы ставить оценки


Серфинг на Таити / The Ultimate Wave: Tahiti - IMAX

Год выпуска: 2010
Страна: США
Студия: Stephen Low Company
Жанр: документальный
Продолжительность: 00:45:53
Перевод: Не требуется
Русские субтитры: нет
Режиссер на русском: Стивен Лоу
Режиссер на английском: Steven Lowe
В ролях: Майкл Ханрахан, Келли Слэйтер, Raimana Van Bastolear
Описание: В центре внимания этого документального аттракциона 38 летний американец Келли Слэйтер (девятикратный чемпион мира по сёрфингу). Катание на волне на специальных лёгких досках — это неимоверный кайф, драйв и панический ужас одновременно. Весь букет непередаваемых ощущений, которые очень близки к эйфории, сможет испытать зритель, не уезжая из городских джунглей, при этом, не намочив даже ноги! Как описать словами то, что не поддается описанию? Когда каждая клеточка твоего тела начинает сосуществовать отдельно от всего твоего организма… Пожалуй, создателям удалось передать весь букет эмоций и чувств, кроме, страха… Но, ведь это восхитительно, по сути, ни с чем не сравнимое удовольствие без минимального риска для жизни! Ни с чем несравнимое впечатление!
На встроенных ТВ-плейерах работать не будет!!!
Качество: BDrip
Контейнер: MKV
Формат 3D: OverUnder / Вертикальная стереопара
Порядок ракурсов: левый ракурс первый
Видео кодек: x264
Аудио кодек: DTS
Видео: AVC / 1920х2160 / 23,976 кадр/сек / 32,2 Мбит/сек
Аудио: Немецкий / DTS / 48 KHz / 5.1 ch / 1510 Kbps

MediaInfo

General
Complete name : D:\3D Документальные передачи\Серфинг на Таити (2010).mkv
Format : Matroska
File size : 11.0 GiB
Duration : 45mn 53s
Overall bit rate : 34.4 Mbps
Encoded date : UTC 2012-01-24 07:11:47
Writing application : mkvmerge v3.4.0 ('Rapunzel') сборка от May 15 2010 09:38:20
Writing library : libebml v0.8.0 + libmatroska v0.9.0
Video
ID : 1
Format : AVC
Format/Info : Advanced Video Codec
Format profile : High@L5.0
Format settings, CABAC : Yes
Format settings, ReFrames : 5 frames
Muxing mode : Container profile=Unknown@5.0
Codec ID : V_MPEG4/ISO/AVC
Duration : 45mn 53s
Bit rate : 32.2 Mbps
Width : 1 920 pixels
Height : 2 160 pixels
Display aspect ratio : 0.889
Frame rate : 23.976 fps
Color space : YUV
Chroma subsampling : 4:2:0
Bit depth : 8 bits
Scan type : Progressive
Bits/(Pixel*Frame) : 0.324
Stream size : 10.3 GiB (94%)
Writing library : x264 core 119 r2106 07efeb4
Encoding settings : cabac=1 / ref=5 / deblock=1:-3:-3 / analyse=0x3:0x113 / me=umh / subme=9 / psy=1 / psy_rd=1.00:0.15 / mixed_ref=1 / me_range=16 / chroma_me=1 / trellis=2 / 8x8dct=1 / cqm=0 / deadzone=21,11 / fast_pskip=1 / chroma_qp_offset=-3 / threads=6 / sliced_threads=0 / nr=0 / decimate=1 / interlaced=0 / bluray_compat=0 / constrained_intra=0 / bframes=4 / b_pyramid=2 / b_adapt=2 / b_bias=0 / direct=3 / weightb=1 / open_gop=0 / weightp=2 / keyint=250 / keyint_min=23 / scenecut=40 / intra_refresh=0 / rc_lookahead=40 / rc=crf / mbtree=1 / crf=18.0 / qcomp=0.60 / qpmin=10 / qpmax=69 / qpstep=4 / vbv_maxrate=40000 / vbv_bufsize=40000 / crf_max=0.0 / nal_hrd=none / ip_ratio=1.40 / aq=1:1.00
Audio
ID : 2
Format : DTS
Format/Info : Digital Theater Systems
Codec ID : A_DTS
Duration : 45mn 53s
Bit rate mode : Constant
Bit rate : 1 510 Kbps
Channel(s) : 6 channels
Channel positions : Front: L C R, Side: L R, LFE
Sampling rate : 48.0 KHz
Bit depth : 16 bits
Stream size : 495 MiB (4%)
Language : German

Скриншоты

Благодарности релизеру (0)

Торрент:

Статус:

Размер:

Зарегистрирован   [ 2012-01-24 12:03 ]

проверено

11.03 GB