Торренты   
 
 

 

Трансформеры 3: Тёмная сторона Луны / Transformers: Dark of the Moon 1080p BDRip 3D Half OverUnder (Майкл Бэй) [2011 г., Anamorph OverUnder]

Рейтинг 3D:
4 голосов
7.2
Рейтинг фильма:
3 голосов
8.7
 
Вы должны быть авторизированы,
чтобы ставить оценки


Трансформеры 3: Тёмная сторона Луны / Transformers: Dark of the Moon 1080p BDRip 3D Half OverUnder
Год выпуска: 2011
Страна: США - Paramount Pictures, Hasbro, Di Bonaventura Pictures
Жанр: фантастика, боевик, приключения
Продолжительность: 2:34:23
Перевод: Профессиональный (полное дублирование)
Режиссер: Майкл Бэй

В ролях: Шайа ЛаБаф, Джош Дюамель, Джон Туртурро, Тайриз Гибсон, Роузи Хантингтон-Уайтли, Патрик Демпси, Кевин Данн, Джули Уайт, Джон Малкович, Питер Каллен
Описание: Для наших героев наступили печальные будни: Сэм потерял Микаэлу, правительство выпускает законодательный акт о выселении Автоботов с Земли, а пока Мегатрон скрывается после позорного поражения Фоллена, десептикон Шокуэйв, правитель Кибертрона, готовится нанести визит нашей планете с совсем недобрыми намерениями. Действие заключительной части трилогии на этот раз охватит не только Землю, но и Луну, темная сторона которой хранит не менее темные тайны
Доп. информация: Качество: 1080p BDRip
Формат 3D: Half OverUnder / Горизонтальная анаморфная стереопара
Звук #1: Английский (Оригинал), AC3, 6ch (L, C, R, Ls, Rs +LFE), 640 кбит/с
Звук #2: Русский (Дублированный), AC3, 6ch (L, C, R, Ls, Rs +LFE), 640 кбит/с |Пифагор|
Звук #3: Украинский (Дублированный), AC3, 6ch (L, C, R, Ls, Rs +LFE), 384 кбит/с
Формат 3d: Anamorph OverUnder
Видео: x.264, NTSC 23.976, 1920x1080, 11100 кбит/с

Скриншоты




Media info

General
Unique ID : 229934414346814335266150556012212538689 (0xACFBC1E3E3B38E7FA10C3D067A024D41)
Complete name Transformers_Dark.of.the.Moon.(2011).BDRip[3D].1080p.HalfOU.AC3.mkv
Format : Matroska
Format version : Version 2
File size : 14.0 GiB
Duration : 2h 34mn
Overall bit rate : 13.0 Mbps
Encoded date : UTC 2012-01-24 16:35:38
Writing application : mkvmerge v5.2.1 ('A Far Off Place') built on Jan 2 2012 23:21:10
Writing library : libebml v1.2.3 + libmatroska v1.3.0
Video
ID : 1
Format : AVC
Format/Info : Advanced Video Codec
Format profile : High@L5.1
Format settings, CABAC : Yes
Format settings, ReFrames : 2 frames
Muxing mode : Header stripping
Codec ID : V_MPEG4/ISO/AVC
Duration : 2h 34mn
Bit rate : 11.1 Mbps
Width : 1 920 pixels
Height : 1 080 pixels
Display aspect ratio : 16:9
Frame rate : 23.976 fps
Color space : YUV
Chroma subsampling : 4:2:0
Bit depth : 8 bits
Scan type : Progressive
Bits/(Pixel*Frame) : 0.223
Stream size : 12.0 GiB (85%)
Writing library : x264 core
Default : Yes
Forced : No
Color primaries : BT.709-5, BT.1361, IEC 61966-2-4, SMPTE RP177
Transfer characteristics : BT.709-5, BT.1361
Matrix coefficients : BT.709-5, BT.1361, IEC 61966-2-4 709, SMPTE RP177
Audio #1
ID : 2
Format : AC-3
Format/Info : Audio Coding 3
Mode extension : CM (complete main)
Muxing mode : Header stripping
Codec ID : A_AC3
Duration : 2h 34mn
Bit rate mode : Constant
Bit rate : 640 Kbps
Channel(s) : 6 channels
Channel positions : Front: L C R, Side: L R, LFE
Sampling rate : 48.0 KHz
Bit depth : 16 bits
Compression mode : Lossy
Stream size : 707 MiB (5%)
Language : English
Default : No
Forced : No
Audio #2
ID : 3
Format : AC-3
Format/Info : Audio Coding 3
Mode extension : CM (complete main)
Muxing mode : Header stripping
Codec ID : A_AC3
Duration : 2h 34mn
Bit rate mode : Constant
Bit rate : 640 Kbps
Channel(s) : 6 channels
Channel positions : Front: L C R, Side: L R, LFE
Sampling rate : 48.0 KHz
Bit depth : 16 bits
Compression mode : Lossy
Stream size : 707 MiB (5%)
Language : Russian
Default : Yes
Forced : Yes
Audio #3
ID : 4
Format : AC-3
Format/Info : Audio Coding 3
Mode extension : CM (complete main)
Muxing mode : Header stripping
Codec ID : A_AC3
Duration : 2h 34mn
Bit rate mode : Constant
Bit rate : 384 Kbps
Channel(s) : 6 channels
Channel positions : Front: L C R, Side: L R, LFE
Sampling rate : 48.0 KHz
Bit depth : 16 bits
Compression mode : Lossy
Stream size : 424 MiB (3%)
Language : Ukrainian
Default : No
Forced : No
Благодарности релизеру (1)

Торрент:

Статус:

Размер:

Зарегистрирован   [ 2012-01-25 09:28 ]

* не проверено

14.03 GB

 
Комментарии:

1, 2  След.






Формат 3D: Half OverUnder / Горизонтальная анаморфная стереопара исправьте на вертикаьную. За релиз благодарен.
 

Внимание желающим скачать - "Muxing mode : Header stripping" (сжатые заголовки)!
 

ash61 это что значит?
 

Внимание желающим скачать - "Muxing mode : Header stripping" (сжатые заголовки)!
Я лично качаю для рейтинга, да и мне всё равно, моя Дуня читает всё. Но с нетерпением жду твоего релиза. А у кого не читается, могут исправить рип
по этой инструкции http://torrents3d.ru/viewtopic.php?t=2036
 

KoDi, на большинстве ТВ-плейеров не будет работать, пока не перемуксишь правильно...
Самсунги вроде читают такое...
 

оу, тогда подожду тоже...спасибо что предупредили
 

Траблы на встроенных плеерах могут быть и с параметром Format profile : High@L5.1
По умолчанию неплохо так же делать русский язык... Пока не качаю. Жду от проверенных релизеров
Ash61, TopGun, Elepant
 

По умолчанию неплохо так же делать русский язык...
а это что?
Language : Russian
Default : Yes
Forced : Yes
 

На LG не идет
 

Да, спасибо, airbox, уровень-то я просмотрел. Знач на ЛЖ и многих других ТВ, даже после перемуксирования всё равно не пойдёт. А Самсунги может и скушают... :)
 

А вопрос почему не идет на LG , и поможет ли установка новой прошивки для телевизора а то не очень приятно когда качаешь а потом не идет...
 

blackros не поможет
 

У меня на ЛЖ идет:) только я с компа смотрю))))
 

На лыжах Format profile : High@L5.1 и не пойдёт! Будьте внимательней в будующем.
 

а это переделаный из 2д, или снимали в 3д?
 

LG 55LW570S по локалке(установлен PLEX медиа сервер) читает без проблем. Прошивка ТВ 5.01.10
 

фильм идет но озвучка английская не подскажите что делать?!
 

Программа mkvmerge GUI русскую дорожку поднять вверх- сделать первой. Минут через 8-10 создаст новый файл
 

Кстате, флаги, установленные на "ДА" у меня никак не влияют и всегда выбирается 1 сверху дорожка. Сейчас перемуксировал - создал новый файл с 1 русской дорогой, старый прийдется удалить.
 

опять черные полосы на пол экрана
 

Страница 1 из 2

1, 2  След.