Торренты   
 
 


Челюсти / Shark Night (Дэвид Р. Эллис) [2011 г., BDRip 1080p, Full OverUnder]

Рейтинг 3D:
2 голосов
6.5
Рейтинг фильма:
2 голосов
8.0
 
Вы должны быть авторизированы,
чтобы ставить оценки


- 2011
США
ужасы, триллер
Дублированный
Дэвид Р. Эллис
01:30:19 -

Сара Пэкстон (Sara), Дастин Миллиган (Nick), Крис Кармак (Dennis Crim), Кэтрин МакФи (Beth), Донал Лог (Sheriff Greg Sabin), Джоэль Мур (Gordon), Джошуа Леонард (Red), Синква Уоллс (Malik), Алисса Диаз (Maya), Крис Зилка (Blake), Джимми Ли мл. (Carl), Дэймон Липари (Keith)
Дублёры: Анна Штукатурова (Sara), Даниил Эльдаров (Nick), Михаил Тихонов (Dennis Crim), Ирина Киреева (Beth), Илья Исаев (Sheriff Greg Sabin), Александр Гаврилин (Gordon), Илья Хвостиков (Malik)
-

Сюжет фильма вращается вокруг группы подростков, учащихся колледжа, которые проводят свои выходные на воде в большом озере. Вскоре они обнаруживают, что зубастая опасность скрывается под ними, в непроглядной глубине...
- OverUnder
AVC, h264, 1920х2160 , 23,976 кадр/сек, 33,0 Мбит/сек
Rus, AC-3, 6 каналов, 640 Кбит/сек, 48,0 КГц
Eng, AC-3, 6 каналов, 640 Кбит/сек, 48,0 КГц -

Тык



Тык

Общее
Формат : Matroska
Размер файла : 22,1 Гбайт
Продолжительность : 1 ч. 30 м.
Общий поток : 35,0 Мбит/сек
Дата кодирования : UTC 2012-01-24 20:07:06
Программа кодирования : mkvmerge v3.4.0 ('Rapunzel') сборка от May 15 2010 09:38:20
Библиотека кодирования : libebml v0.8.0 + libmatroska v0.9.0
Видео
Идентификатор : 1
Формат : AVC
Формат/Информация : Advanced Video Codec
Профиль формата : High@L5.0
Параметр CABAC формата : Да
Параметр ReFrames формата : 4 кадры
Идентификатор кодека : V_MPEG4/ISO/AVC
Продолжительность : 1 ч. 30 м.
Битрейт : 33,0 Мбит/сек
Ширина : 1920 пикс.
Высота : 2160 пикс.
Соотношение сторон : 0,889
Частота кадров : 23,976 кадр/сек
Цветовое пространство : YUV
Подвыборка цветности : 4:2:0
Битовая глубина : 8 бит
Тип развёртки : Прогрессивная
Бит/(Пиксели*Кадры) : 0.332
Размер потока : 20,8 Гбайт (94%)
Библиотека кодирования : x264 core 116 r2074 2641b9e
Настройки программы : cabac=1 / ref=4 / deblock=1:-3:-3 / analyse=0x3:0x133 / me=umh / subme=9 / psy=1 / psy_rd=1.00:0.05 / mixed_ref=1 / me_range=16 / chroma_me=1 / trellis=2 / 8x8dct=1 / cqm=0 / deadzone=21,11 / fast_pskip=1 / chroma_qp_offset=-3 / threads=9 / sliced_threads=0 / nr=0 / decimate=1 / interlaced=0 / bluray_compat=0 / constrained_intra=0 / bframes=6 / b_pyramid=2 / b_adapt=2 / b_bias=0 / direct=3 / weightb=1 / open_gop=0 / weightp=2 / keyint=250 / keyint_min=23 / scenecut=40 / intra_refresh=0 / rc_lookahead=60 / rc=crf / mbtree=1 / crf=18.0 / qcomp=0.60 / qpmin=10 / qpmax=69 / qpstep=4 / vbv_maxrate=50000 / vbv_bufsize=50000 / crf_max=0.0 / nal_hrd=none / ip_ratio=1.40 / aq=1:0.80
Аудио #1
Идентификатор : 2
Формат : AC-3
Формат/Информация : Audio Coding 3
Расширение режима : CM (complete main)
Идентификатор кодека : A_AC3
Продолжительность : 1 ч. 30 м.
Вид битрейта : Постоянный
Битрейт : 640 Кбит/сек
Канал(ы) : 6 канала(ов)
Расположение каналов : Front: L C R, Side: L R, LFE
Частота : 48,0 КГц
Битовая глубина : 16 бит
Метод сжатия : С потерями
Задержка видео : 1 с. 750 мс.
Размер потока : 413 Мбайт (2%)
Язык : Russian
Аудио #2
Идентификатор : 3
Формат : AC-3
Формат/Информация : Audio Coding 3
Расширение режима : CM (complete main)
Идентификатор кодека : A_AC3
Продолжительность : 1 ч. 30 м.
Вид битрейта : Постоянный
Битрейт : 640 Кбит/сек
Канал(ы) : 6 канала(ов)
Расположение каналов : Front: L C R, Side: L R, LFE
Частота : 48,0 КГц
Битовая глубина : 16 бит
Метод сжатия : С потерями
Размер потока : 413 Мбайт (2%)
Язык : English
На встроенных ТВ-плейерах показывать НЕ будет!!!
Благодарности релизеру (1)

Торрент:

Статус:

Размер:

Зарегистрирован   [ 2012-01-25 20:44 ]

проверено

22.06 GB