Торренты   
 
 


Солнце в 3Д / 3D Sun [2007г, HDTV, 1080p, Anamorph SideBySide]

Рейтинг 3D:
Пока никто не голосовал
Рейтинг фильма:
Пока никто не голосовал
 
Вы должны быть авторизированы,
чтобы ставить оценки


Солнце в 3Д3D Sun
Год выпуска: 2007
Страна: США (Melrae Pictures, K2 Communications, Smithsonian National Air and Space Museum, NASA)
Жанр: Документальный, Короткометражный
Продолжительность: 00:21:58
Перевод: Отсутствует
Язык: Английский
Описание: На основе 3D технологии NASA создало объемное изображения Солнца для большего удобства специалистов, которые теперь имеют возможность наблюдать за ним вне лабораторий.
Доп. информация: Копипаст старого, затерявшегося релиза. Перевода всё же не хватает. Видна "гребёнка" как на интерлейсе (хотя развёртка прогрессивная). Наверное, всё-таки, это рип.--Проверено на встроенном плейере ТВ Samsung UE-C7000--Формат 3d: Anamorph SideBySide
Порядок ракурсов: Параллельная пара--Качество: HDTV
Контейнер: ts
Видео: AVC / 1920х1080p / 25,000 fps / 6900 Kbps
Аудио: Английский / mp2 / 48 KHz / 2 ch / 192 Kbps

MediaInfo

General
ID : 1 (0x1)
Complete name : F:\Downloads\3D Sun.ts
Format : MPEG-TS
Format/Info : Advanced Video Codec
File size : 1.15 GiB
Duration : 21mn 57s
Overall bit rate : 7 463 Kbps
Video
ID : 1771 (0x6EB)
Menu ID : 1770 (0x6EA)
Format : AVC
Format/Info : Advanced Video Codec
Format profile : High@L4.0
Format settings, CABAC : Yes
Format settings, ReFrames : 4 frames
Format settings, GOP : M=3, N=30
Codec ID : 27
Duration : 21mn 58s
Bit rate : 6 900 Kbps
Width : 1 920 pixels
Height : 1 088 pixels
Display aspect ratio : 16:9
Frame rate : 25.000 fps
Color space : YUV
Chroma subsampling : 4:2:0
Bit depth : 8 bits
Scan type : Progressive
Bits/(Pixel*Frame) : 0.132
Stream size : 1.06 GiB (92%)
Color primaries : BT.709-5, BT.1361, IEC 61966-2-4, SMPTE RP177
Transfer characteristics : BT.709-5, BT.1361
Matrix coefficients : BT.709-5, BT.1361, IEC 61966-2-4 709, SMPTE RP177
Audio
ID : 1772 (0x6EC)
Menu ID : 1770 (0x6EA)
Format : MPEG Audio
Format version : Version 1
Format profile : Layer 2
Codec ID : 4
Duration : 21mn 57s
Bit rate mode : Constant
Bit rate : 192 Kbps
Channel(s) : 2 channels
Sampling rate : 48.0 KHz
Compression mode : Lossy
Video delay : -2s 145ms
Stream size : 30.2 MiB (3%)
Language : Italian
Menu
ID : 1770 (0x6EA)
Menu ID : 1770 (0x6EA)
Duration : 21mn 57s
List : 1771 (0x6EB) (AVC) / 1772 (0x6EC) (MPEG Audio, Italian)
Language : / Italian

Скриншоты

Благодарности релизеру (8)

Торрент:

Статус:

Размер:

Зарегистрирован   [ 2012-01-27 01:09 ]

проверено

1.15 GB