Торренты   
 
 


Челюсти 3D / Shark Night 3D (Дэвид Р. Эллис / David R. Ellis) [2011 г., Anamorph OverUnder] Ru

Рейтинг 3D:
7 голосов
6.1
Рейтинг фильма:
7 голосов
4.9
 
Вы должны быть авторизированы,
чтобы ставить оценки


© Закрыто правообладателем
Год выпуска: 2011
Страна: США
Жанр: ужасы, триллер
Продолжительность: 01:30:19
Перевод: Профессиональный (полное дублирование)
Режиссер: Дэвид Р. Эллис / David R. Ellis
В ролях: Сара Пэкстон (Sara), Дастин Миллиган (Nick), Крис Кармак (Dennis Crim), Кэтрин МакФи (Beth), Донал Лог (Sheriff Greg Sabin), Джоэль Мур (Gordon), Джошуа Леонард (Red), Синква Уоллс (Malik), Алисса Диаз (Maya), Крис Зилка (Blake), Джимми Ли мл. (Carl), Дэймон Липари (Keith)
Дублёры: Анна Штукатурова (Sara), Даниил Эльдаров (Nick), Михаил Тихонов (Dennis Crim), Ирина Киреева (Beth), Илья Исаев (Sheriff Greg Sabin), Александр Гаврилин (Gordon), Илья Хвостиков (Malik)
Описание: Сюжет фильма вращается вокруг группы подростков, учащихся колледжа, которые проводят свои выходные на воде в большом озере. Вскоре они обнаруживают, что зубастая опасность скрывается под ними, в непроглядной глубине...
Формат 3d: Anamorph OverUnder
Видео: AVC, h264, 1920х1080 , 23,976 кадр/сек, 16,9 Мбит/сек
Аудио 1: Russian Dolby Digital Audio 5.1 / 48 kHz / 640 kbps (DUB)
Лучшее "спасибо" - скачать сэмпл...

Скриншоты




Gif анимация

МИ

Общее
Уникальный идентификатор : 220480447662229517264301482812303349304 (0xA5DEFD586BF8C54C9F132D7B2A7A1638)
Полное имя : Челюсти 3Д (2011)_Half_OU (TopGun).mkv
Формат : Matroska
Версия формата : Version 2
Размер файла : 11,3 Гбайт
Продолжительность : 1 ч. 30 м.
Общий поток : 17,9 Мбит/сек
Дата кодирования : UTC 2012-01-25 17:43:26
Программа кодирования : mkvmerge v5.2.1 ('A Far Off Place') built on Jan 2 2012 23:21:10
Библиотека кодирования : libebml v1.2.3 + libmatroska v1.3.0
Видео
Идентификатор : 1
Формат : AVC
Формат/Информация : Advanced Video Codec
Профиль формата : High@L4.1
Параметр CABAC формата : Да
Параметр ReFrames формата : 4 кадра
Идентификатор кодека : V_MPEG4/ISO/AVC
Продолжительность : 1 ч. 30 м.
Битрейт : 16,9 Мбит/сек
Ширина : 1920 пикселей
Высота : 1080 пикселей
Соотношение сторон : 16:9
Частота кадров : 23,976 кадра/сек
Цветовое пространство : YUV
Субдискретизация насыщенности : 4:2:0
Битовая глубина : 8 бит
Тип развёртки : Прогрессивная
Бит/(Пиксели*Кадры) : 0.340
Размер потока : 10,7 Гбайт (94%)
Заголовок : BDRip by TopGun - Rus transfer
Библиотека кодирования : x264 core 116 r2074 2641b9e
Настройки программы : cabac=1 / ref=4 / deblock=1:-3:-3 / analyse=0x3:0x133 / me=umh / subme=9 / psy=1 / psy_rd=1.00:0.05 / mixed_ref=1 / me_range=16 / chroma_me=1 / trellis=2 / 8x8dct=1 / cqm=0 / deadzone=21,11 / fast_pskip=1 / chroma_qp_offset=-3 / threads=6 / sliced_threads=0 / nr=0 / decimate=1 / interlaced=0 / bluray_compat=0 / constrained_intra=0 / bframes=6 / b_pyramid=2 / b_adapt=2 / b_bias=0 / direct=3 / weightb=1 / open_gop=0 / weightp=2 / keyint=250 / keyint_min=23 / scenecut=40 / intra_refresh=0 / rc_lookahead=60 / rc=crf / mbtree=1 / crf=18.0 / qcomp=0.60 / qpmin=10 / qpmax=69 / qpstep=4 / vbv_maxrate=50000 / vbv_bufsize=50000 / crf_max=0.0 / nal_hrd=none / ip_ratio=1.40 / aq=1:0.80
Default : Да
Forced : Нет
Аудио
Идентификатор : 2
Формат : AC-3
Формат/Информация : Audio Coding 3
Расширение режима : CM (complete main)
Идентификатор кодека : A_AC3
Продолжительность : 1 ч. 30 м.
Вид битрейта : Постоянный
Битрейт : 640 Кбит/сек
Каналы : 6 каналов
Расположение каналов : Front: L C R, Side: L R, LFE
Частота : 48,0 КГц
Битовая глубина : 16 бит
Метод сжатия : С потерями
Размер потока : 413 Мбайт (4%)
Заголовок : AC3 - 640 kb Rus
Default : Да
Forced : Нет
Меню
00:00:00.000 : :01
00:05:55.939 : :02
00:17:11.239 : :03
00:22:09.745 : :04
00:28:35.422 : :05
00:36:34.567 : :06
00:45:36.943 : :07
00:53:10.312 : :08
00:59:55.008 : :09
01:07:18.326 : :10
01:14:34.637 : :11
01:26:07.996 : :12

Сравнение скринов рипов с русского и зарубежного трансферов

Этот рип- русский трансфер VC Рип с зарубежного трансфера



Благодарности релизеру (16)

Торрент:

Статус:

Размер:

Зарегистрирован   [ 2012-05-06 21:13 ]

© закрыто правообладателем

11.3 GB