Торренты   
 
 

 

Путешествие к Центру Земли / Journey to the Center of the Earth (Эрик Бревиг) [2008 г., BDrip. 720p OverUnder]

Рейтинг 3D:
197 голосов
8.7
Рейтинг фильма:
187 голосов
8.2
 
Вы должны быть авторизированы,
чтобы ставить оценки


-- --Путешествие к Центру Земли
«Та же планета. Другой мир.»
--
Год выпуска: 2008
Страна: США
Студии: New Line Cinema, Walden Media, Journey Films
Жанр: фантастика, боевик, триллер, комедия, приключения, семейный
Продолжительность: 01:32:34
Перевод:
Профессиональный (дублированный)
Профессиональный (многоголосый закадровый)
Профессиональный (одногоголосый закадровый)
Режиссер:
Эрик Бревиг
В ролях:
Брендан Фрейзер, Джош Хатчерсон, Анита Брием, Сет Майерс, Жан Мишель Паре, Джейн Вилер, Фрэнк Фонтейн, Джанкарло Кальтабиано, Каньехтио Хорн, Гарт Гилкер
Описание:
Пытаясь узнать о судьбе исчезнувшего брата, учёный, его племянник и их проводница открывают фантастичный и опасный затерянный мир в Центре Земли...--Формат 3d: OverUnder
Видео: AVC, h264, 1280х1440 , 23,976 кадр/сек, 9,0 Мбит/сек
Аудио 1: Russian Dolby Digital Audio 5.1 / 48 kHz / 448 kbps (DUB)
Аудио 2: Russian Dolby Digital Audio 5.1 / 48 kHz / 448 kbps (MVO - С.Р.И.)
Аудио 3: Russian Dolby Digital Audio 5.1 / 48 kHz / 448 kbps (VO - Ю. Сербин)

На встроенных ТВ-плейерах показывать НЕ будет!!!

Скриншоты

МИ

Общее
Уникальный идентификатор : 205469023003011316631397437808682278385 (0x9A93E4F7B24F08E792F8A8BF96CD1DF1)
Полное имя : D:\3D-RuGroup\JourneyToTheCenterOfTheEarth.3D.2008.BD3DRip.720p.OU.x264.AC3.Rus.mkv
Формат : Matroska
Версия формата : Version 2
Размер файла : 6,79 Гбайт
Продолжительность : 1 ч. 32 м.
Общий поток : 10,5 Мбит/сек
Название фильма : JourneyToTheCenterOfTheEarth.3D.2008.BD3DRip.720p.OU.x264.AC3.Rus
Дата кодирования : UTC 2012-01-29 12:22:57
Программа кодирования : mkvmerge v3.4.0 ('Rapunzel') сборка от May 15 2010 09:38:20
Библиотека кодирования : libebml v0.8.0 + libmatroska v0.9.0
Видео
Идентификатор : 1
Формат : AVC
Формат/Информация : Advanced Video Codec
Профиль формата : High@L4.1
Параметр CABAC формата : Да
Параметр ReFrames формата : 4 кадра
Идентификатор кодека : V_MPEG4/ISO/AVC
Продолжительность : 1 ч. 32 м.
Битрейт : 8940 Кбит/сек
Ширина : 1280 пикселей
Высота : 1440 пикселей
Соотношение сторон : 0,889
Частота кадров : 23,976 кадра/сек
Цветовое пространство : YUV
Субдискретизация насыщенности : 4:2:0
Битовая глубина : 8 бит
Тип развёртки : Прогрессивная
Бит/(Пиксели*Кадры) : 0.202
Размер потока : 5,78 Гбайт (85%)
Заголовок : rip by itsamna (aka elephant AnTo}{@)
Библиотека кодирования : x264 core 116 r2074 2641b9e
Настройки программы : cabac=1 / ref=4 / deblock=1:-3:-3 / analyse=0x3:0x133 / me=umh / subme=9 / psy=1 / psy_rd=1.00:0.05 / mixed_ref=1 / me_range=16 / chroma_me=1 / trellis=2 / 8x8dct=1 / cqm=0 / deadzone=21,11 / fast_pskip=1 / chroma_qp_offset=-3 / threads=6 / sliced_threads=0 / nr=0 / decimate=1 / interlaced=0 / bluray_compat=0 / constrained_intra=0 / bframes=6 / b_pyramid=2 / b_adapt=2 / b_bias=0 / direct=3 / weightb=1 / open_gop=0 / weightp=2 / keyint=250 / keyint_min=23 / scenecut=40 / intra_refresh=0 / rc_lookahead=40 / rc=crf / mbtree=1 / crf=18.0 / qcomp=0.60 / qpmin=10 / qpmax=69 / qpstep=4 / vbv_maxrate=50000 / vbv_bufsize=50000 / crf_max=0.0 / nal_hrd=none / ip_ratio=1.40 / aq=1:0.70
Default : Да
Forced : Нет
Аудио #1
Идентификатор : 2
Формат : AC-3
Формат/Информация : Audio Coding 3
Расширение режима : CM (complete main)
Идентификатор кодека : A_AC3
Продолжительность : 1 ч. 32 м.
Вид битрейта : Постоянный
Битрейт : 448 Кбит/сек
Каналы : 6 каналов
Расположение каналов : Front: L C R, Side: L R, LFE
Частота : 48,0 КГц
Битовая глубина : 16 бит
Метод сжатия : С потерями
Размер потока : 297 Мбайт (4%)
Заголовок : DUB AC3 5.1 448 Kbps
Язык : Russian
Default : Да
Forced : Нет
Аудио #2
Идентификатор : 3
Формат : AC-3
Формат/Информация : Audio Coding 3
Расширение режима : CM (complete main)
Идентификатор кодека : A_AC3
Продолжительность : 1 ч. 32 м.
Вид битрейта : Постоянный
Битрейт : 448 Кбит/сек
Каналы : 6 каналов
Расположение каналов : Front: L C R, Side: L R, LFE
Частота : 48,0 КГц
Битовая глубина : 16 бит
Метод сжатия : С потерями
Размер потока : 297 Мбайт (4%)
Заголовок : MVO AC3 5.1 448 Kbps
Язык : Russian
Default : Нет
Forced : Нет
Аудио #3
Идентификатор : 4
Формат : AC-3
Формат/Информация : Audio Coding 3
Расширение режима : CM (complete main)
Идентификатор кодека : A_AC3
Продолжительность : 1 ч. 32 м.
Вид битрейта : Постоянный
Битрейт : 448 Кбит/сек
Каналы : 6 каналов
Расположение каналов : Front: L C R, Side: L R, LFE
Частота : 48,0 КГц
Битовая глубина : 16 бит
Метод сжатия : С потерями
Размер потока : 297 Мбайт (4%)
Заголовок : VO - Ю. Сербин AC3 5.1 448 Kbps
Язык : Russian
Default : Нет
Forced : Нет
Меню
00:00:00.000 : :01
00:03:21.618 : :02
00:07:13.850 : :03
00:11:56.424 : :04
00:17:51.362 : :05
00:22:22.007 : :06
00:28:11.023 : :07
00:33:36.473 : :08
00:38:58.294 : :09
00:42:18.035 : :10
00:45:23.596 : :11
00:51:20.369 : :12
00:56:32.639 : :13
01:00:20.867 : :14
01:05:20.458 : :15
01:08:56.090 : :16
01:14:09.737 : :17
01:15:58.012 : :18
01:19:05.449 : :19
01:22:02.835 : :20
01:26:07.996 : :21
Остальные раздачи этого фильма (5)
Благодарности релизеру (5)

Торрент:

Статус:

Размер:

Зарегистрирован   [ 2012-01-30 19:30 ]

проверено

6.79 GB

 
 Мнение о фильме (63)

1, 2, 3, 4  След.






Огромное спасибо!!!! Два часа ночи. Начал смотреть - невозможно оторваться. Качество супер!!!! Постоянно из экрана что-то вылетает. Дубляж. В общем - полный кайф!!! ))))
 

спасибо!
вылет отличный
 

Глубина объема хорошая!
 

Большое Спасибо!!! 3D эффекты супер!!
 

Спасибо автору релиза. Да, фильм в плане 3D зачётный. Не то что современное 3Dермо!(не про все). Читал про фильм Хранитель времени 3D, обещают объём и эффекты на уровне Аватара http://www.kinopoisk.ru/level/1/film/462247/
 

Могу смело заявить - в этом фильме 3Д просто супееееееееееер!!!!!!!!!! Сценарий специально под 3Д эффекты подогнан!Тут вам и глубина и ВЫЛЕТЫ и картинка на весь экран, одним словом-БОМБА!!!! Залившему-РЕСПЕКТ И УВАЖУХА!!!! Всем СМЕЛО качайте и тащитесь! Проверено на LG 3D CINEMA (телек такой 42й) :-)))
 

Спасибо, фильм шикарен. Смотрел на ТВ филипс 3Д 7000 и ЛДЖИ 3Д проигрывателе, спецэффекты потрясающие. Я новичок и посмотрел в 3Д всего 10 фильмов и этот самый зрелещный. Остальные качал с этого же сайта но эффекты объёма не те, подскажите почему, а аватар так вообще только 2Д и усё. Спасибо за автору и остальным за ответ.
 

фильм просто супер максимальное количество вылетов 3D из существующих фильмов. хотя фильм и не новый. ЭТо пример для создания 3D мудакам крторые создали ДЖОНА КАРТЕРА в кором 3D ток в названии. Сейчас создатели не заморачиваются над созданием 3D, а просто втыкают его в название и пытаются этим срубить баблла. А этот фильм порадовал БАЛШОЙ РЕСПЕКТ раздаюшему и создателю!!!!!!!!!!!!!!!
 

Спасибо! Зачетные эффекты!
 

Спасибо за фильм!!!!Смотрел раньше в 2д но не думал что пересматривая фильм бду так сильно удивлён. Красота одним словом. 3д просто бомба. Такому фильму можно и медальку дать впринципе.
 

Yuragun
да, по сравнению с некоторыми другими фильмами 3D тут хорошее.
 

И фильм и 3D всё СУПЕР!!!
 

Да, что фильм смотрибельный, что 3D супер.
пы.сы. чего-то тормозило на сцене с плотом... кто-то подобное заметил?
 

как с вылетами дело обстоит народ?
 

Фильм супер! 3 Д просто отличное, аватар отдыхает) все такое объемное...
 

классный фильм, особенно жучок с усиками в начале! спасибо!!!!!!!!!!!!!
 
девочка на облаке Профиль 04-Мар-2013 21:42

фильм просто обалденный, 3D супер
 

Самый лучший фильм с 3d который я смотрел
 

Качество 3Д на высоте, фильм норм
 

3d хорошее сам фильм на один раз сойдет
 

Страница 1 из 4

1, 2, 3, 4  След.