Торренты   
 
 


Трансформеры: Тёмная сторона Луны 3D / Transformers: Dark of the Moon 3D (Майкл Бэй) [2011 г., BDrip, 720p OverUnder]

Рейтинг 3D:
68 голосов
6.6
Рейтинг фильма:
70 голосов
6.8
 
Вы должны быть авторизированы,
чтобы ставить оценки



«Последний шанс цивилизации»
Год выпуска: 2011
Страна: США
Жанр: фантастика, боевик, приключения
Продолжительность: 02:34:22
Перевод:
Профессиональный (дублированный)
Профессиональный (многоголосый, закадровый)
Русские cубтитры: есть-Режиссер: Майкл Бэй / Michael Bay
Сценарий: Эрен Крюгер / Ehren Kruger
Продюсер: Дон Мерфи / Don Murphy, Йен Брюс / Ian Bryce, Том ДеСанто / Tom DeSanto, Лоренцо Ди Бонавентура / Lorenzo di Bonaventura, Кенни Бейтс / Kenny Bates
Оператор: Амир М. Мокри / Amir M. Mokri
Композитор: Стив Яблонски / Steve Jablonsky
В ролях: Шайа ЛаБаф (Sam Witwicky,), Джош Дюамель (Lennox), Джон Туртурро (Simmons), Тайриз Гибсон (Epps), Роузи Хантингтон-Уайтли (Carly Spencer), Патрик Демпси (Dylan), Кевин Данн (Ron Witwicky), Джули Уайт (Judy Witwicky), Джон Малкович (Bruce Brazos), Питер Каллен (Optimus Prime, озвучка), Хьюго Уивинг (Megatron, озвучка), Леонард Нимой (Sentinel Prime, озвучка)-Бюджет: $195 000 000
Сборы в США: $351 991 232
Сборы в России: $44 991 020
Сборы в мире: $1 118 603 296
Мировая премьера: 25 июня 2011-Описание:
Для наших героев наступили печальные будни: Сэм потерял Микаэлу, правительство выпускает законодательный акт о выселении Автоботов с Земли, а пока Мегатрон скрывается после позорного поражения Фоллена, десептикон Шокуэйв, правитель Кибертрона, готовится нанести визит нашей планете с совсем недобрыми намерениями. Действие заключительной части трилогии на этот раз охватит не только Землю, но и Луну, темная сторона которой хранит не менее темные тайны.-
ВНИМАНИЕ: На встроенных плеерах TV работать не будет!
-Качество: BDrip 720р
Контейнер: MKV
Формат 3D: OverUnder / Вертикальная стереопара
Видео кодек: x264
Аудио кодек: AC3
Видео: AVC / 1280х1440p / 23,976 fps / 10.0 Mbps
Аудио №1: Русский / AC3 / 48 KHz / 5.1 ch / 640 Kbps (Дубляж)
Аудио №2: Русский / AC3 / 48 KHz / 5.1 ch / 640 Kbps (MVO - BBC Saint Petersburg)
Аудио №3: Украинский / AC3 / 48 KHz / 5.1 ch / 384 Kbps (отдельно на Narod.ru)
Аудио №4: Английский / AC3 / 48 KHz / 5.1 ch / 640 Kbps (отдельно на Narod.ru)
Субтитры: русские (полные и форсированные), английские, украинские (отдельно на Narod.ru)

Знаете ли Вы, что...

  • Мировая премьера фильма состоялась в Москве в рамках Московского международного кинофестиваля 23 июня 2011 года.
  • Из-за конфликта с режиссером фильма Меган Фокс была вынуждена покинуть проект.
  • 1 миллион американских долларов был потрачен в течение двух съемочных дней в Художественном музее Милуоки.
  • Майкл Бэй - единственный режиссер, которому было разрешено дважды снять запуск космического шатла («Армагеддон» и «Трансформеры 3»).
  • Трансформеры созданы компанией по производству игрушек Hasbro в 1984 году, позже ставших медиаимперией из мультсериалов и комиксов. Сегодня права на комиксы Трансформеров принадлежат издательству IDW и они дополняют как кинофраншизу, так и оригинальную вселенную Трансформеров.
  • Сентинел Прайм (озвучивал в оригинале Леонард Нимой) перед финальной битвой с Оптимусом говорит: «Потребности большинства перекрывают потребности меньшинства». Примечательно, что это фраза является фразой Спока («Звёздный путь»), роль которого исполнял Леонард Нимой.
  • Главными претендентками на роль Карли были Бруклин Декер и Сара Райт. Также её могли сыграть Джемма Артертон, Эшли Грин, Миранда Керр, Бар Рафаэли, Эмбер Херд, Камилла Белль, Кэти Кэссиди, Хайди Монтаг и Анна Кендрик.
  • Майклу Бэю достается 8% от продаж всей мерчандайзинговой продукции - игрушек, сувениров, комиксов - связанной с фильмом. К оригинальным игрушкам Трансформеров, не брендированных в стиле кинофраншизы, это не относится.
  • Во время съемок автомобильной сцены в штате Индиана лопнул буксировочный трос. Оторвавшись, он тяжело ранил водительницу. Габриэла Седийо осталась в живых, но лишилась глаза, получила серьезное повреждение головного мозга и оказалась наполовину парализована.

MediaInfo


Общее
Уникальный идентификатор : 232028088136087518211167452828156493239 (0xAE8EFBFA4CBCC4458C8AC7242912FDB7)
Полное имя : G:\Downloads\Transformers.DarkOfTheMoon.3D.2011.BD3DRip.720p.OU.x264.AC3.2xRus.mkv
Формат : Matroska
Версия формата : Version 2
Размер файла : 12,4 Гбайт
Продолжительность : 2 ч. 34 м.
Общий поток : 11,5 Мбит/сек
Название фильма : Transformers.DarkOfTheMoon.3D.2011.BD3DRip.720p.OU.x264.AC3.2xRus
Дата кодирования : UTC 2012-01-31 16:05:26
Программа кодирования : mkvmerge v3.4.0 ('Rapunzel') сборка от May 15 2010 09:38:20
Библиотека кодирования : libebml v0.8.0 + libmatroska v0.9.0
Видео
Идентификатор : 1
Формат : AVC
Формат/Информация : Advanced Video Codec
Профиль формата : High@L4.1
Параметр CABAC формата : Да
Параметр ReFrames формата : 4 кадра
Идентификатор кодека : V_MPEG4/ISO/AVC
Продолжительность : 2 ч. 34 м.
Битрейт : 10,0 Мбит/сек
Ширина : 1280 пикселей
Высота : 1440 пикселей
Соотношение сторон : 0,889
Частота кадров : 23,976 кадра/сек
Цветовое пространство : YUV
Субдискретизация насыщенности : 4:2:0
Битовая глубина : 8 бит
Тип развёртки : Прогрессивная
Бит/(Пиксели*Кадры) : 0.227
Размер потока : 10,8 Гбайт (87%)
Заголовок : rip by itsamna (aka elephant AnTo}{@)
Библиотека кодирования : x264 core 116 r2074 2641b9e
Настройки программы : cabac=1 / ref=4 / deblock=1:-3:-3 / analyse=0x3:0x133 / me=umh / subme=9 / psy=1 / psy_rd=1.00:0.05 / mixed_ref=1 / me_range=16 / chroma_me=1 / trellis=2 / 8x8dct=1 / cqm=0 / deadzone=21,11 / fast_pskip=1 / chroma_qp_offset=-3 / threads=3 / sliced_threads=0 / nr=0 / decimate=1 / interlaced=0 / bluray_compat=0 / constrained_intra=0 / bframes=6 / b_pyramid=2 / b_adapt=2 / b_bias=0 / direct=3 / weightb=1 / open_gop=0 / weightp=2 / keyint=250 / keyint_min=23 / scenecut=40 / intra_refresh=0 / rc_lookahead=40 / rc=crf / mbtree=1 / crf=18.0 / qcomp=0.60 / qpmin=10 / qpmax=69 / qpstep=4 / vbv_maxrate=50000 / vbv_bufsize=50000 / crf_max=0.0 / nal_hrd=none / ip_ratio=1.40 / aq=1:0.70
Default : Да
Forced : Нет
Аудио #1
Идентификатор : 2
Формат : AC-3
Формат/Информация : Audio Coding 3
Расширение режима : CM (complete main)
Идентификатор кодека : A_AC3
Продолжительность : 2 ч. 34 м.
Вид битрейта : Постоянный
Битрейт : 640 Кбит/сек
Каналы : 6 каналов
Расположение каналов : Front: L C R, Side: L R, LFE
Частота : 48,0 КГц
Битовая глубина : 16 бит
Метод сжатия : С потерями
Размер потока : 707 Мбайт (6%)
Заголовок : DUB AC3 5.1 640 Kbps
Язык : Russian
Default : Да
Forced : Нет
Аудио #2
Идентификатор : 3
Формат : AC-3
Формат/Информация : Audio Coding 3
Расширение режима : CM (complete main)
Идентификатор кодека : A_AC3
Продолжительность : 2 ч. 34 м.
Вид битрейта : Постоянный
Битрейт : 640 Кбит/сек
Каналы : 6 каналов
Расположение каналов : Front: L C R, Side: L R, LFE
Частота : 48,0 КГц
Битовая глубина : 16 бит
Метод сжатия : С потерями
Размер потока : 707 Мбайт (6%)
Заголовок : MVO AC3 5.1 448 Kbps
Язык : Russian
Default : Нет
Forced : Нет
Меню
00:00:00.000 : :01
00:08:52.574 : :02
00:14:26.616 : :03
00:20:20.928 : :04
00:28:48.143 : :05
00:36:18.635 : :06
00:45:18.549 : :07
00:51:53.027 : :08
00:56:34.224 : :09
01:04:13.308 : :10
01:12:56.706 : :11
01:19:09.078 : :12
01:23:41.391 : :13
01:28:44.819 : :14
01:35:13.082 : :15
01:42:44.158 : :16
01:49:12.337 : :17
01:56:42.913 : :18
02:04:59.117 : :19
02:11:29.590 : :20
02:19:10.884 : :21
02:25:37.520 : :22

Скриншоты

Остальные раздачи этого фильма (4)
Благодарности релизеру (15)

Торрент:

Статус:

Размер:

Зарегистрирован   [ 2012-01-31 21:48 ]

проверено

12.43 GB

 
 Мнение о фильме (16)





Качество хорошее, а фильм оказывается ни о чем, сегодня посмотрел. Самое прикольное, что есть сцены похожие как в фильме " Фантом", когда девушка потерялась.
 

Фильм норм
И качество норм
 

Хороший 3D фильм. Спасибо!
 

Качество хорошее, а фильм оказывается ни о чем, сегодня посмотрел. Самое прикольное, что есть сцены похожие как в фильме " Фантом", когда девушка потерялась
может быть у фантома есть похожие сцены с трансформерами?
фильм вышел раньше чем фантом, и сценарий к нему писался за долго до его выхода, делайте выводы
 

МЫ ДАДИМ БОЙ ЭТИМ ЗЛОДЕЯМ!!!
 

хорошее качество. зд - зачет. смотрел на Сони Бравия 47 дюймов.
 

Мне понравилось 3D, замечательное качество.
 

мне тоже понравилось
 

Смотрел как то давно в mkv 3d. Сейчас решил пересмотреть в блюрее..
Не качайте этот говеный репак! Перевод говно! и много сцен вырезано 43 гига шлака!
 

Замечательный фильм, жду 4 части, следующим летом. 3Д порадовал.
 

Прикольно тут, комменты во всех раздачах трансформеров одни и те же.
 

30 гигов говна! накой мне дома телевизор в 60 дюймов, если скачанное изображение в четверть экрана. не качайте ни в коем разе!!!!!
 

Не могу просмотреть на телевизоре через USB, звук есть картинки нет!
 

The Message Is Removed
 

ash61,Привет. Нираз сталкиваюсь с этой проблемой: у меня телевизор LG c разрешением 1920х1080 . У тебя указано , что видео разрешения 1920х1080. Когда я включаю фильм , у меня с верху и снизу обрезано. Как это объяснишь?
 

Максон999, в данном релизе (как и в любом другом моём анаморфе) ничего не обрезано - всё как на Блю-Рэе. Ну а то, что есть чёрные полосы (как и на большинстве других анаморфов) - так это именно такие Блю-Рэи.
А с полосами разрешение, как и указано, 1920х1080.