Торренты   
 
 


Тест Panas Z10000 & Sony TD-10 №1 [2012 г., Anamorph SideBySide]

Рейтинг 3D:
Пока никто не голосовал
Рейтинг фильма:
Пока никто не голосовал
 
Вы должны быть авторизированы,
чтобы ставить оценки


Тест panas Z10000 & Sony TD-10 №1
Год выпуска: 2012
Страна: Россия
Жанр: Учебное
Продолжительность: 2м45с
Описание: Короткий тест камер сони и панасоник, в одинаковых темных условиях. Завтра буду пробовать на улице.
Формат 3d: Anamorph SideBySide
Видео: Format : MPEG-4 Format profile
: Base Media / Version 2 Codec ID : mp42 File size : 484 MiB Duration : 2mn 45s Overall bit rate : 24.5 Mbps Encoded date : UTC 2012-02-04 19:25:43 Tagged date : UTC 2012-02-04 19:25:43 ©TIM : 00:00:00:00 ©TSC : 25 ©TSZ : 1 Video ID : 1 Format : AVC Format/Info : Advanced Video Codec Format profile : High@L5.1 Format settings, CABAC : Yes Format settings, ReFrames : 3 frames Codec ID : avc1 Codec ID/Info : Advanced Video Coding Duration : 2mn 45s Bit rate mode : Constant Bit rate : 25.0 Mbps Width : 1 280 pixels Height : 720 pixels Display aspect ratio : 16:9 Frame rate mode : Constant Frame rate : 25.000 fps Standard : PAL Color space : YUV Chroma subsampling : 4:2:0 Bit depth : 8 bits Scan type : Progressive Bits/(Pixel*Frame) : 1.085 Stream size : 481 MiB (99%) Language : English Encoded date : UTC 2012-02-04 19:25:43 Tagged date : UTC 2012-02-04 19:25:43 Color primaries : BT.709-5, BT.1361, IEC 61966-2-4, SMPTE RP177 Transfer characteristics : BT.709-5, BT.1361 Matrix coefficients : BT.709-5, BT.1361, IEC 61966-2-4 709, SMPTE RP177 Audio ID : 2 Format : AAC Format/Info : Advanced Audio Codec Format profile : LC Codec ID : 40 Duration : 2mn 45s Bit rate mode : Variable Bit rate : 125 Kbps Maximum bit rate : 199 Kbps Channel(s) : 2 channels Channel positions : Front: L R Sampling rate : 48.0 KHz Compression mode : Lossy Stream size : 2.47 MiB (1%) Language : English Encoded date : UTC 2012-02-04 19:25:43 Tagged date : UTC 2012-02-04 19:25:43

Скриншоты



Благодарности релизеру (0)

Торрент:

Статус:

Размер:

Зарегистрирован   [ 2012-02-05 01:08 ]

проверено

384 MB