Торренты   
 
 

 

3d-pee / Писает [Anaglyph, red'cyan]

Рейтинг 3D:
2 голосов
7.5
Рейтинг фильма:
2 голосов
4.5
 
Вы должны быть авторизированы,
чтобы ставить оценки


3d-pee / Писает
Жанр: !
Продолжительность: 00:03:55
Описание: Обассалась якобы от страха .......
Формат 3d: Anaglyph
Цвета очков:

Скриншоты


MI

Общее
Полное имя : 3d-pee.wmv
Формат : Windows Media
Размер файла : 116 Мбайт
Продолжительность : 3 м. 55 с.
Режим общего битрейта : Переменный
Общий поток : 4149 Кбит/сек
Максимальный общий битрейт : 4162 Кбит/сек
Дата кодирования : UTC 2010-04-12 14:59:21.375
Видео
Идентификатор : 2
Формат : VC-1
Профиль формата : MP@HL
Идентификатор кодека : WMV3
Идентификатор кодека/Информация : Windows Media Video 9
Идентификатор кодека/Подсказка : WMV3
Описание кодека : Windows Media Video 9 - Professional
Продолжительность : 3 м. 55 с.
Вид битрейта : Переменный
Битрейт : 4000 Кбит/сек
Ширина : 1280 пикселей
Высота : 720 пикселей
Соотношение сторон : 16:9
Частота кадров : 29,970 кадров/сек
Битовая глубина : 8 бит
Тип развёртки : Прогрессивная
Метод сжатия : С потерями
Бит/(Пиксели*Кадры) : 0.145
Размер потока : 112 Мбайт (96%)
Язык : Hungarian
Аудио
Идентификатор : 1
Формат : WMA
Версия формата : Version 2
Идентификатор кодека : 161
Идентификатор кодека/Информация : Windows Media Audio
Описание кодека : Windows Media Audio 9.1 - 128 kbps, 44 kHz, stereo 2-pass CBR
Продолжительность : 3 м. 55 с.
Вид битрейта : Постоянный
Битрейт : 128 Кбит/сек
Каналы : 2 канала
Частота : 44,1 КГц
Битовая глубина : 16 бит
Размер потока : 3,59 Мбайт (3%)
Язык : Hungarian (HU)
Благодарности релизеру (0)

Торрент:

Статус:

Размер:

Зарегистрирован   [ 2012-02-06 13:26 ]

* не проверено

116 MB