Торренты   
 
 

 

Мушкетеры / The Three Musketeers [2011г, BDrip, 1080p, Anamorph OverUnder]

Рейтинг 3D:
37 голосов
7.5
Рейтинг фильма:
33 голосов
7.5
 
Вы должны быть авторизированы,
чтобы ставить оценки


© Закрыто правообладателем
Год выпуска: 2011
Страна: США, Германия, Франция, Великобритания (Constantin Film, Impact Pictures)
Жанр: Приключения, Боевик
Продолжительность: 01:50:31
Перевод: Профессиональный (полное дублирование)
Субтитры: Есть
Режиссер: Пол У. С. Андерсон / Paul W.S. Anderson
В ролях: Logan Lerman, Milla Jovovich, Matthew Macfadyen, Ray Stevenson, Luke Evans, Orlando Bloom, Christoph Waltz, Mads Mikkelsen, Gabriella Wilde, James Corden, Juno Temple, Freddie Fox, Til Schweiger...
Роли дублировали: Даниил Щебланов, Ирина Киреева, Владимир Зайцев, Александр Груздев, Алексей Мясников, Илья Бледный, Василий Дахненко, Олег Щербинин, Лина Иванова, Антон Колесников, Лиза Мартиросова, Николай Быстров, Пётр Иващенко
Описание: Молодой д’Артаньян покинул родной дом и отправился в Париж, надеясь на место в полку мушкетёров. По случайности в один день он обидел сразу троих мушкетёров — Атоса, Портоса и Арамиса — и получил от всех троих вызовы на дуэль.
Но дуэль была прервана появлением гвардейцев кардинала, которые хотели арестовать их за нарушение указа о запрете дуэлей. Д’Артаньян и три мушкетера победили превосходящего противника и стали друзьями. Теперь они должны остановить злобного Кардинала Ришелье и столкнутся с герцогом Бэкингемом, и предательницей Миледи Де Винтер.
Доп. информация: Видеоряд немецкий.--Проверено на встроенном плейере ТВ Samsung UE-C7000 --Формат 3d: Anamorph OverUnder
Качество: BDrip
Контейнер: MKV
Видео: AVC / 1920х1080p / 23,976 fps / 9661 Kbps
Аудио#1: Русский / AC3 / 48 KHz / 5.1 ch / 448 Kbps
Аудио#2: Украинский / AC3 / 48 KHz / 5.1 ch / 448 Kbps (MVO - Line)
Аудио#3: Английский / AC3 / 48 KHz / 5.1 ch / 640 Kbps
Субтитры: вшитые полные русские (от notabenoid) и английские (softsub, srt)

MediaInfo

General
UniqueID : 206397896143438596050308849055109890400 (0x9B46C9F2FFB1B9ECB0F4A22E57124160)
Complete name : F:\Downloads\TheThreeMusketeers(3D)2011.halfOU.AC3(ash61).mkv
Format : Matroska
File size : 8.82 GiB
Duration : 1h 50mn
Overall bit rate : 11.4 Mbps
Movie name : The Three Musketeers (3D) 2011 (Ash61)
Encoded date : UTC 2012-02-10 13:04:26
Writing application : mkvmerge v3.4.0 ('Rapunzel') сборка от May 15 2010 09:38:20
Writing library : libebml v0.8.0 + libmatroska v0.9.0
Video
ID : 1
Format : AVC
Format/Info : Advanced Video Codec
Format profile : High@L4.1
Format settings, CABAC : Yes
Format settings, ReFrames : 4 frames
Codec ID : V_MPEG4/ISO/AVC
Duration : 1h 50mn
Bit rate : 9 661 Kbps
Width : 1 920 pixels
Height : 1 080 pixels
Display aspect ratio : 16:9
Frame rate : 23.976 fps
Color space : YUV
Chroma subsampling : 4:2:0
Bit depth : 8 bits
Scan type : Progressive
Bits/(Pixel*Frame) : 0.194
Stream size : 7.46 GiB (85%)
Title : BDrip by Ash61
Writing library : x264 core 119 r2106 07efeb4
Encoding settings : cabac=1 / ref=4 / deblock=1:-3:-3 / analyse=0x3:0x113 / me=umh / subme=9 / psy=1 / psy_rd=1.00:0.15 / mixed_ref=1 / me_range=16 / chroma_me=1 / trellis=2 / 8x8dct=1 / cqm=0 / deadzone=21,11 / fast_pskip=1 / chroma_qp_offset=-3 / threads=3 / sliced_threads=0 / nr=0 / decimate=1 / interlaced=0 / bluray_compat=0 / constrained_intra=0 / bframes=6 / b_pyramid=2 / b_adapt=2 / b_bias=0 / direct=3 / weightb=1 / open_gop=0 / weightp=2 / keyint=250 / keyint_min=23 / scenecut=40 / intra_refresh=0 / rc_lookahead=60 / rc=crf / mbtree=1 / crf=18.0 / qcomp=0.70 / qpmin=0 / qpmax=69 / qpstep=4 / vbv_maxrate=40000 / vbv_bufsize=40000 / crf_max=0.0 / nal_hrd=none / ip_ratio=1.40 / aq=1:0.70
Audio #1
ID : 2
Format : AC-3
Format/Info : Audio Coding 3
Mode extension : CM (complete main)
Codec ID : A_AC3
Duration : 1h 50mn
Bit rate mode : Constant
Bit rate : 448 Kbps
Channel(s) : 6 channels
Channel positions : Front: L C R, Side: L R, LFE
Sampling rate : 48.0 KHz
Bit depth : 16 bits
Compression mode : Lossy
Stream size : 354 MiB (4%)
Language : Russian
Audio #2
ID : 3
Format : AC-3
Format/Info : Audio Coding 3
Mode extension : CM (complete main)
Codec ID : A_AC3
Duration : 1h 50mn
Bit rate mode : Constant
Bit rate : 448 Kbps
Channel(s) : 2 channels
Channel positions : Front: L R
Sampling rate : 48.0 KHz
Bit depth : 16 bits
Compression mode : Lossy
Stream size : 354 MiB (4%)
Title : Line
Language : Ukrainian
Audio #3
ID : 4
Format : AC-3
Format/Info : Audio Coding 3
Mode extension : CM (complete main)
Codec ID : A_AC3
Duration : 1h 50mn
Bit rate mode : Constant
Bit rate : 640 Kbps
Channel(s) : 6 channels
Channel positions : Front: L C R, Side: L R, LFE
Sampling rate : 48.0 KHz
Bit depth : 16 bits
Compression mode : Lossy
Stream size : 506 MiB (6%)
Language : English
Text #1
ID : 5
Format : UTF-8
Codec ID : S_TEXT/UTF8
Codec ID/Info : UTF-8 Plain Text
Title : Полные
Language : Russian
Text #2
ID : 6
Format : UTF-8
Codec ID : S_TEXT/UTF8
Codec ID/Info : UTF-8 Plain Text
Title : Full
Language : English
Menu
00:00:00.000 : :01
00:06:09.786 : :02
00:12:20.406 : :03
00:17:31.592 : :04
00:23:52.181 : :05
00:31:28.678 : :06
00:35:56.488 : :07
00:42:31.549 : :08
00:47:04.613 : :09
00:53:17.319 : :10
00:59:14.634 : :11
01:04:40.043 : :12
01:08:33.109 : :13
01:14:24.418 : :14
01:21:04.610 : :15
01:27:36.918 : :16
01:36:09.681 : :17
01:42:27.433 : :18
Господа копипастеры, пожалуйста, уважайте труд рипперов -
не "забывайте" указывать авторство в своих релизах!
--10.02.2012 - Релиз обновлён, русская дорога заменена на лицензионную + добавлена украинская + добавлены субтитры.
Скачайте, пожалуйста, заново торрент-файл.
Остальные раздачи этого фильма (4)
Благодарности релизеру (27)

Торрент:

Статус:

Размер:

Зарегистрирован   [ 2012-02-10 21:10 ]

© закрыто правообладателем

8.82 GB