Торренты   
 
 


Бой с тенью 3D: Последний раунд (Алексей Сидоров) [2011 г., med_bad, FAB-Rip, 1080p, Anamorph SideBySide]

Рейтинг 3D:
7 голосов
6.7
Рейтинг фильма:
6 голосов
7.7
 
Вы должны быть авторизированы,
чтобы ставить оценки


[bad]Бой с тенью 3D: Последний раунд
Год выпуска: 2011
Страна: Россия
Жанр: боевик, драма, криминал, приключения
Продолжительность: 02:06:32
Перевод: не требуется
Режиссер: Алексей Сидоров
В ролях: Денис Никифоров, Андрей Панин, Елена Панова, Бату Хасиков, Михаил Горевой, Дмитрий Шевченко, Ольга Дибцева, Софья Мицкевич
Описание: Боксер-чемпион Артем Колчин достиг всех мыслимых вершин и стал национальным героем. На ринг он больше не выходит, предпочитая тренерскую работу и бурную светскую жизнь с постоянным мельканием на ТВ, тусовками и интрижками. А дома его по утрам встречают дочка и жена Вика, которая больше не узнает в нем того Артема, которого она когда-то полюбила...Внешне благополучному существованию Колчина приходит конец, когда его подопечного чуть не убивает в бою знаменитый Куэрте. Артем подозревает, что тот использует некую запрещенную технику. За доказательствами ему приходится отправиться в Гонконг, где его ждет старый знакомый Вагит Валиев: он знает о Куэрте то, чего не знает больше ни один человек. Чтобы победить, Артему придется снова выйти на ринг.

Формат 3d: Anamorph SideBySide
Порядок ракурсов: Левый ракурс первый

MediaInfo

General
Complete name : Бой с тенью.mkv
Format : Matroska
File size : 13.3 GiB
Duration : 2h 6mn
Overall bit rate : 15.0 Mbps
Movie name : <<BDRip 3D 1080p for by Ivanakella>>
Encoded date : UTC 2012-02-02 15:03:44
Writing application : mkvmerge v2.0.2 ('You're My Flame') built on Feb 21 2007 23:40:55
Writing library : libebml v0.7.7 + libmatroska v0.8.1
Video
ID : 1
Format : AVC
Format/Info : Advanced Video Codec
Format profile : High@L5.1
Format settings, CABAC : Yes
Format settings, ReFrames : 2 frames
Codec ID : V_MPEG4/ISO/AVC
Duration : 2h 6mn
Bit rate : 14.1 Mbps
Width : 1 920 pixels
Height : 1 080 pixels
Display aspect ratio : 16:9
Frame rate : 23.976 fps
Color space : YUV
Chroma subsampling : 4:2:0
Bit depth : 8 bits
Scan type : Progressive
Bits/(Pixel*Frame) : 0.283
Stream size : 12.4 GiB (94%)
Title : <<BDRip 3D 1080p for by Ivanakella>>
Writing library : x264 core
Color primaries : BT.709-5, BT.1361, IEC 61966-2-4, SMPTE RP177
Transfer characteristics : BT.709-5, BT.1361
Matrix coefficients : BT.709-5, BT.1361, IEC 61966-2-4 709, SMPTE RP177
Audio
ID : 2
Format : AC-3
Format/Info : Audio Coding 3
Mode extension : CM (complete main)
Codec ID : A_AC3
Duration : 2h 6mn
Bit rate mode : Constant
Bit rate : 640 Kbps
Channel(s) : 6 channels
Channel positions : Front: L C R, Side: L R, LFE
Sampling rate : 48.0 KHz
Bit depth : 16 bits
Stream size : 579 MiB (4%)
Language : Russian
Menu
00:00:00.000 : en:(01)00:00:00:000
00:08:26.172 : en:(02)00:08:26:172
00:15:19.293 : en:(03)00:15:19:293
00:21:52.394 : en:(04)00:21:52:394
00:29:31.853 : en:(05)00:29:31:853
00:38:35.146 : en:(06)00:38:35:146
00:46:58.357 : en:(07)00:46:58:357
00:55:38.793 : en:(08)00:55:38:793
01:05:58.371 : en:(09)01:05:58:371
01:14:37.556 : en:(10)01:14:37:556
01:21:14.119 : en:(11)01:21:14:119
01:31:43.456 : en:(12)01:31:43:456
01:39:16.700 : en:(13)01:39:16:700
01:46:14.451 : en:(14)01:46:14:451
01:53:16.998 : en:(15)01:53:16:998
02:01:41.127 : en:(16)02:01:41:127
02:06:36.505 : en:(17)02:06:36:505

Скриншоты



Благодарности релизеру (10)

Торрент:

Статус:

Размер:

Зарегистрирован   [ 2012-02-08 06:57 ]

проверено

13.27 GB