Торренты   
 
 

 

Иван Царевич и Серый Волк [2011г, BDrip, 1080p, Anamorph OverUnder]

Рейтинг 3D:
23 голосов
7.1
Рейтинг фильма:
26 голосов
7.8
 
Вы должны быть авторизированы,
чтобы ставить оценки


Иван Царевич и Серый Волк
Год выпуска: 2011
Страна: Россия (Мельница, СТВ)
Жанр: Мультфильм, Комедия, Приключения, Семейный
Продолжительность: 01:26:02
Режиссер: Владимир ТоропчинРоли озвучивали:Никита Ефремов (Иван), Артур Смольянинов (волк), Иван Охлобыстин (царь), Татьяна Бунина (Василиса), Виктор Сухоруков (первый министр), Михаил Боярский (ученый кот), Сергей Гармаш (Змей Горыныч), Сергей Русскин (Кощей Бессмертный), Лия Ахеджакова (Баба Яга), Елена Шульман (русалка), Кристина Асмус (белка), Константин Бронзит (царь-император), Олег Куликович (волшебный клубок), Анатолий Петров (повар), Александр Боярский (Злая Тень)
Описание: Увлекательная история от создателей богатырской трилогии, в которой героев русских народных сказок ждут новые приключения, опасности и забавные ситуации.
Доп. информация: 3Д примерно как в "Три богатыря и Шамаханская царица" (не как в "Белке и Стрелке" или в "Щелкунчике") (имхо).
За исходник спасибо: и amazon--Проверено на встроенном плейере ТВ Samsung UE-C7000 --Формат 3d: Anamorph OverUnder
Качество: BDrip
Контейнер: MKV
Видео: AVC / 1920х1080p / 23,976 fps / 3590 Kbps
Аудио: Русский / AC3 / 48 KHz / 5.1 ch / 640 Kbps

MediaInfo

General
UniqueID : 240526042928394907749014785023708774700 (0xB4F3A17F427187BD8FAB3710609C412C)
Complete name : F:\Downloads\IvanCarevichISeriyVolk(3D)2011.halfOU(ash61).mkv
Format : Matroska
File size : 2.59 GiB
Duration : 1h 26mn
Overall bit rate : 4 316 Kbps
Movie name : Иван Царевич и Серый Волк (3D) 2011 (Ash61)
Encoded date : UTC 2012-02-08 10:35:43
Writing application : mkvmerge v3.4.0 ('Rapunzel') сборка от May 15 2010 09:38:20
Writing library : libebml v0.8.0 + libmatroska v0.9.0
Video
ID : 1
Format : AVC
Format/Info : Advanced Video Codec
Format profile : High@L4.1
Format settings, CABAC : Yes
Format settings, ReFrames : 4 frames
Codec ID : V_MPEG4/ISO/AVC
Duration : 1h 26mn
Bit rate : 3 590 Kbps
Width : 1 920 pixels
Height : 1 080 pixels
Display aspect ratio : 16:9
Frame rate : 23.976 fps
Color space : YUV
Chroma subsampling : 4:2:0
Bit depth : 8 bits
Scan type : Progressive
Bits/(Pixel*Frame) : 0.072
Stream size : 2.16 GiB (83%)
Title : BDrip by Ash61
Writing library : x264 core 119 r2106 07efeb4
Encoding settings : cabac=1 / ref=4 / deblock=1:-3:-3 / analyse=0x3:0x113 / me=umh / subme=9 / psy=1 / psy_rd=1.00:0.15 / mixed_ref=1 / me_range=16 / chroma_me=1 / trellis=2 / 8x8dct=1 / cqm=0 / deadzone=21,11 / fast_pskip=1 / chroma_qp_offset=-3 / threads=3 / sliced_threads=0 / nr=0 / decimate=1 / interlaced=0 / bluray_compat=0 / constrained_intra=0 / bframes=6 / b_pyramid=2 / b_adapt=2 / b_bias=0 / direct=3 / weightb=1 / open_gop=0 / weightp=2 / keyint=250 / keyint_min=23 / scenecut=40 / intra_refresh=0 / rc_lookahead=60 / rc=crf / mbtree=1 / crf=18.0 / qcomp=0.70 / qpmin=0 / qpmax=69 / qpstep=4 / vbv_maxrate=40000 / vbv_bufsize=40000 / crf_max=0.0 / nal_hrd=none / ip_ratio=1.40 / aq=1:0.70
Audio
ID : 2
Format : AC-3
Format/Info : Audio Coding 3
Mode extension : CM (complete main)
Codec ID : A_AC3
Duration : 1h 26mn
Bit rate mode : Constant
Bit rate : 640 Kbps
Channel(s) : 6 channels
Channel positions : Front: L C R, Side: L R, LFE
Sampling rate : 48.0 KHz
Bit depth : 16 bits
Compression mode : Lossy
Stream size : 394 MiB (15%)
Language : Russian
Menu
00:00:00.000 : :01
00:08:25.088 : :02
00:15:22.213 : :03
00:22:22.591 : :04
00:29:26.098 : :05
00:36:14.672 : :06
00:45:18.090 : :07
00:53:35.963 : :08
01:00:50.605 : :09
01:06:58.306 : :10
01:14:15.409 : :11
01:21:14.828 : :12

Скриншоты

Господа копипастеры, пожалуйста, уважайте труд рипперов -
не "забывайте" указывать авторство в своих релизах!
Остальные раздачи этого фильма (2)
Благодарности релизеру (41)

Торрент:

Статус:

Размер:

Зарегистрирован   [ 2012-02-08 16:52 ]

проверено

2.59 GB

 
 Мнение о фильме (8)





потешный мульт)
 

Мультик очень хороший. НАШ
 
noviy_bereg49@mail.ru Профиль 22-Май-2013 22:31

мульт класный. но звук на пару слов опаздует. смотрел на LG42
 

хороший мульт
 

Детям мультик понравился хотят 2 часть
 

Мульт нормальный и интересный.
Сплетено достаточно интриг.
Очень понравился персонаж Черномора.
3D не очень.
 

Супре мульт очень понравился
 

Перекачиваю.Прикольный мульт.Спасибо)))