Торренты   
 
 

 

Иван Царевич и Серый Волк в 3Д / 3D (Владимир Торопчин) [2011, BDrip, 1080p, Full OverUnder]

Рейтинг 3D:
23 голосов
7.1
Рейтинг фильма:
26 голосов
7.8
 
Вы должны быть авторизированы,
чтобы ставить оценки


Иван Царевич и Серый Волк

Год выпуска: 2011
Страна: Россия
Студия: Мельница, СТВ
Жанр: Мультфильм, Комедия, Приключения, Семейный
Продолжительность: 01:26:02
Перевод: Не требуется
Русские субтитры: нет
Режиссер на русском: Владимир Торопчин
В ролях: Никита Ефремов, Иван Охлобыстин, Артур Смольянинов, Лия Ахеджакова, Кристина Асмус, Виктор Сухоруков, Сергей Гармаш, Михаил Боярский, Татьяна Бунина, Сергей Русскин
Описание: Увлекательная история от создателей богатырской трилогии, в которой героев русских народных сказок ждут новые приключения, опасности и забавные ситуации.
На встроенных ТВ-плейерах работать не будет!!!
Качество: BDrip
Контейнер: MKV
Формат 3D: OverUnder / Вертикальная стереопара
Порядок ракурсов: левый ракурс первый
Видео кодек: x264
Аудио кодек: DTS
Видео: AVC / 1920х2160 / 23,976 кадр/сек / 5,8 Мбит/сек
Аудио: Русский / DTS / 48 KHz / 5.1 ch / 1510 Kbps

MediaInfo

General
Complete name : D:\3D Мультфильмы\Иван Царевич и Серый Волк (2011).mkv
Format : Matroska
File size : 4.49 GiB
Duration : 1h 26mn
Overall bit rate : 7 462 Kbps
Encoded date : UTC 2012-02-08 14:39:03
Writing application : mkvmerge v3.4.0 ('Rapunzel') сборка от May 15 2010 09:38:20
Writing library : libebml v0.8.0 + libmatroska v0.9.0
Video
ID : 1
Format : AVC
Format/Info : Advanced Video Codec
Format profile : High@L5.0
Format settings, CABAC : Yes
Format settings, ReFrames : 5 frames
Muxing mode : Container profile=Unknown@5.0
Codec ID : V_MPEG4/ISO/AVC
Duration : 1h 26mn
Bit rate : 5 804 Kbps
Width : 1 920 pixels
Height : 2 160 pixels
Display aspect ratio : 0.889
Frame rate : 23.976 fps
Color space : YUV
Chroma subsampling : 4:2:0
Bit depth : 8 bits
Scan type : Progressive
Bits/(Pixel*Frame) : 0.058
Stream size : 3.49 GiB (78%)
Writing library : x264 core 119 r2106 07efeb4
Encoding settings : cabac=1 / ref=5 / deblock=1:-3:-3 / analyse=0x3:0x113 / me=umh / subme=9 / psy=1 / psy_rd=1.00:0.15 / mixed_ref=1 / me_range=16 / chroma_me=1 / trellis=2 / 8x8dct=1 / cqm=0 / deadzone=21,11 / fast_pskip=1 / chroma_qp_offset=-3 / threads=6 / sliced_threads=0 / nr=0 / decimate=1 / interlaced=0 / bluray_compat=0 / constrained_intra=0 / bframes=4 / b_pyramid=2 / b_adapt=2 / b_bias=0 / direct=3 / weightb=1 / open_gop=0 / weightp=2 / keyint=250 / keyint_min=23 / scenecut=40 / intra_refresh=0 / rc_lookahead=40 / rc=crf / mbtree=1 / crf=18.0 / qcomp=0.60 / qpmin=10 / qpmax=69 / qpstep=4 / vbv_maxrate=40000 / vbv_bufsize=40000 / crf_max=0.0 / nal_hrd=none / ip_ratio=1.40 / aq=1:1.00
Audio
ID : 2
Format : DTS
Format/Info : Digital Theater Systems
Codec ID : A_DTS
Duration : 1h 26mn
Bit rate mode : Constant
Bit rate : 1 510 Kbps
Channel(s) : 6 channels
Channel positions : Front: L C R, Side: L R, LFE
Sampling rate : 48.0 KHz
Bit depth : 16 bits
Stream size : 929 MiB (20%)
Language : Russian

Скриншоты

Остальные раздачи этого фильма (2)
Благодарности релизеру (7)

Торрент:

Статус:

Размер:

Зарегистрирован   [ 2012-02-08 20:44 ]

проверено

4.49 GB

 
 Мнение о фильме (8)





потешный мульт)
 

Мультик очень хороший. НАШ
 
noviy_bereg49@mail.ru Профиль 22-Май-2013 22:31

мульт класный. но звук на пару слов опаздует. смотрел на LG42
 

хороший мульт
 

Детям мультик понравился хотят 2 часть
 

Мульт нормальный и интересный.
Сплетено достаточно интриг.
Очень понравился персонаж Черномора.
3D не очень.
 

Супре мульт очень понравился
 

Перекачиваю.Прикольный мульт.Спасибо)))