Торренты   
 
 


Химки Героические. [2012 г., Anamorph SideBySide]

Рейтинг 3D:
Пока никто не голосовал
Рейтинг фильма:
Пока никто не голосовал
 
Вы должны быть авторизированы,
чтобы ставить оценки


Химки Героические.
Год выпуска: 2012
Страна: Россия.
Жанр: Документальный.
Продолжительность: 4 мин.
Описание: Небольшая видеозарисовка с аллеи памяти в г. Химки. Почему то автер эффект стал сильнее сжимать или я что-то там напортил- вчера пол дня мучил АЕ. Есть файл с лучшим разрешением но он 3,5 гига уже весит.
Формат 3d: Anamorph SideBySide
Видео: Format : MPEG-PS
Format : MPEG-PS
File size : 844 MiB
Duration : 4mn 30s
Overall bit rate : 26.2 Mbps
Video
ID : 224 (0xE0)
Format : MPEG Video
Format version : Version 2
Format profile : High@High
Format settings, BVOP : Yes
Format settings, Matrix : Default
Format settings, GOP : M=3, N=15
Duration : 4mn 29s
Bit rate mode : Constant
Bit rate : 25.0 Mbps
Width : 1 920 pixels
Height : 1 080 pixels
Display aspect ratio : 16:9
Frame rate : 29.970 fps
Standard : NTSC
Color space : YUV
Chroma subsampling : 4:2:0
Bit depth : 8 bits
Scan type : Progressive
Compression mode : Lossy
Bits/(Pixel*Frame) : 0.402
Stream size : 819 MiB (97%)
Audio
ID : 192 (0xC0)
Format : MPEG Audio
Format version : Version 1
Format profile : Layer 2
Duration : 4mn 30s
Bit rate mode : Constant
Bit rate : 224 Kbps
Channel(s) : 2 channels
Sampling rate : 48.0 KHz
Compression mode : Lossy
Delay relative to video : -67ms
Stream size : 7.21 MiB (1%)

Скриншоты



[img]http://img-
fotki.yandex.ru/get/5001/4374804.12/0_69903_f16e86fe_XXXL.jpg[/img]

Благодарности релизеру (1)

Торрент:

Статус:

Размер:

Зарегистрирован   [ 2012-02-08 23:38 ]

* не проверено

844 MB