Торренты   
 
 

 

Кот в сапогах 3D / Puss in Boots 3D (Крис Миллер) [2011 г., Anamorph SideBySide]

Рейтинг 3D:
1 голосов
9.0
Рейтинг фильма:
1 голосов
9.0
 
Вы должны быть авторизированы,
чтобы ставить оценки


Кот в сапогах 3D / Puss in Boots 3D
Год выпуска: 2011
Страна: США Buckaroo Entertainment
Жанр: мультфильм, фэнтези, комедия, приключения
Продолжительность: 01:30:14
Перевод: Профессиональный (полное дублирование)
Режиссер: Крис Миллер
В ролях: Антонио Бандерас, Сальма Хайек, Зак Галифианакис, Билли Боб Торнтон, Эми Седарис, Констанс Мари, Гильермо дель Торо, Рич Дитль, Райан Крего, Том Вилер
Описание: Мечи пересекутся и сердца будут разбиты в приключениях с одним из самых любимых персонажей из Шрэка — котом в сапогах. Это удалая поездка ранних лет кота в сапогах, когда он объединяется с умным Шалтай-Болтаем и сообразительной Китти, чтобы украсть знаменитого Гуся, несущего золотые яйца.
Доп. информация: звук с CAMRip
Релиз для нетерпеливых
Проверенно на LG 42LW575s
Формат 3d: Anamorph SideBySide
Порядок ракурсов: Параллельная пара
Видео: mkv 1920x1080 AVC 23.976 fps

MediaInfo

General
Unique ID : 168348648403719580577546155723716462494 (0x7EA6C532C2870C1E037BA147C20E879E)
Complete name : C:\Users\igor\Videos\Кот в сапогах BDRip.3DTV.HSBS.1080P.mkv
Format : Matroska
Format version : Version 2
File size : 10.2 GiB
Duration : 1h 30mn
Overall bit rate : 16.1 Mbps
Writing application : Lavf51.12.1
Writing library : Lavf51.12.1
Video
ID : 1
Format : AVC
Format/Info : Advanced Video Codec
Format profile : Baseline@L1.3
Format settings, CABAC : No
Format settings, ReFrames : 1 frame
Format settings, GOP : M=1, N=12
Codec ID : V_MPEG4/ISO/AVC
Duration : 1h 30mn
Bit rate : 15.4 Mbps
Width : 1 920 pixels
Height : 1 080 pixels
Display aspect ratio : 16:9
Frame rate : 23.976 fps
Color space : YUV
Chroma subsampling : 4:2:0
Bit depth : 8 bits
Scan type : Progressive
Bits/(Pixel*Frame) : 0.309
Stream size : 9.68 GiB (95%)
Default : Yes
Forced : No
Audio
ID : 2
Format : AC-3
Format/Info : Audio Coding 3
Mode extension : CM (complete main)
Codec ID : A_AC3
Duration : 1h 30mn
Bit rate mode : Constant
Bit rate : 448 Kbps
Channel(s) : 6 channels
Channel positions : Front: L C R, Side: L R, LFE
Sampling rate : 44.1 KHz
Bit depth : 16 bits
Compression mode : Lossy
Stream size : 289 MiB (3%)
Default : Yes
Forced : No

Скриншоты




Благодарности релизеру (0)

Торрент:

Статус:

Размер:

Зарегистрирован   [ 2012-02-12 02:54 ]

* не проверено

10.16 GB