Торренты   
 
 


Sony HDR-TD10 & Panasonic HDC-Z10000 test №2 [2012 г., Anamorph SideBySide]

Рейтинг 3D:
Пока никто не голосовал
Рейтинг фильма:
Пока никто не голосовал
 
Вы должны быть авторизированы,
чтобы ставить оценки


Sony HDR-TD10 & Panasonic HDC-Z10000 test №2
Год выпуска: 2012
Страна: Россия
Жанр: обучение, тест
Продолжительность: 1 мин.
Описание: Сравнительный тест камер на близком расстоянии - 50 см Л-ближн, 5 м - Л далн.
Второй тест 3д камер сони и панасоник в равных условиях. Минимальный постпроадкшн, чутка левелсами подпарвил обе картинки, у Сони изначально и было ярче и четче, Панас как был чуть замылен так и остался. Чутка убрал пересевет - панас на автомате пересветил. В вегас клал оба файла одновременно, рендерил в мпег 32Мбит, потом сразу в автер эффект ( мне там больше нравится работать - там немного совсем цветокоррекция и в анаморф сайд бай сайд Н264 кодек 25 Мбит).
Формат 3d: Anamorph SideBySide
Видео: mpeg-4
Format profile : Base Media / Version 2
Codec ID : mp42
File size : 185 MiB
Duration : 1mn 8s
Overall bit rate : 22.7 Mbps
Encoded date : UTC 2012-02-12 15:50:43
Tagged date : UTC 2012-02-12 15:50:43
©TIM : 00:00:00:00
©TSC : 25
©TSZ : 1
Video
ID : 1
Format : AVC
Format/Info : Advanced Video Codec
Format profile : High@L5.1
Format settings, CABAC : Yes
Format settings, ReFrames : 3 frames
Codec ID : avc1
Codec ID/Info : Advanced Video Coding
Duration : 1mn 8s
Bit rate mode : Constant
Bit rate : 22.5 Mbps
Nominal bit rate : 25.0 Mbps
Width : 1 280 pixels
Height : 720 pixels
Display aspect ratio : 16:9
Frame rate mode : Constant
Frame rate : 25.000 fps
Standard : PAL
Color space : YUV
Chroma subsampling : 4:2:0
Bit depth : 8 bits
Scan type : Progressive
Bits/(Pixel*Frame) : 0.978
Stream size : 183 MiB (99%)
Language : English
Encoded date : UTC 2012-02-12 15:50:43
Tagged date : UTC 2012-02-12 15:50:43
Color primaries : BT.709-5, BT.1361, IEC 61966-2-4, SMPTE RP177
Transfer characteristics : BT.709-5, BT.1361
Matrix coefficients : BT.709-5, BT.1361, IEC 61966-2-4 709, SMPTE RP177
Audio
ID : 2
Format : AAC
Format/Info : Advanced Audio Codec
Format profile : LC
Codec ID : 40
Duration : 1mn 8s
Bit rate mode : Variable
Bit rate : 125 Kbps
Maximum bit rate : 204 Kbps
Channel(s) : 2 channels
Channel positions : Front: L R
Sampling rate : 48.0 KHz
Compression mode : Lossy
Stream size : 1.02 MiB (1%)
Language : English
Encoded date : UTC 2012-02-12 15:50:43
Tagged date : UTC 2012-02-12 15:50:43

Скриншоты

Благодарности релизеру (0)

Торрент:

Статус:

Размер:

Зарегистрирован   [ 2012-02-13 02:32 ]

проверено

185 MB