Торренты   
 
 

 

Кошмар за стеной / Derrière les murs / Behind the Walls [2011, BDrip, 1080p, Anamorph OverUnder]

Рейтинг 3D:
5 голосов
7.8
Рейтинг фильма:
5 голосов
5.6
 
Вы должны быть авторизированы,
чтобы ставить оценки


Кошмар за стенойDerrière les mursBehind the Walls
Год выпуска: 2011
Страна: Франция (Sombrero Films, Canal+)
Жанр: Ужасы, Драма, Детектив
Продолжительность: 01:26:20
Перевод: Профессиональный (дублированный)
Режиссер: Жюльен Лякомб, Паскаль Сид / Julien Lacombe, Pascal Sid
В ролях: Летиция Каста, Тьерри Новик, Жак Боннаффе, Роже Дюма, Анн Бенуа, Энн Лорье, Emma Ninucci, Чарлин Пол, Матильда Толлерон
Роли озвучивали: Ирина Киреева, Денис Беспалый, Константин Карасик, Олег Форостенко, Инна Королёва, Екатерина Африкантова
Описание: Центральная Франция, 1922 год. Сюзанна, молодая писательница, ищет вдохновения для новой книги, уединившись в загородном доме. Исследуя особняк, она находит потайную комнату в подвале. Женщину начинают преследовать кошмары и видения, вдобавок ее присутствие заставляет нервничать местных жителей: вскоре в деревне мистическим образом начинают исчезать маленькие девочки…
Доп. информация: Фильм на любителя! Прежде, чем качать, рекомендую почитать отзывы (например, на рутрекере в 2д релизах)!--Проверено на встроенном плейере ТВ Samsung UE-C7000 --Формат 3d: Anamorph OverUnder
Качество: BDrip
Контейнер: MKV
Видео: AVC / 1920х1080p / 23,976 fps / 8378 Kbps
Аудио#1: Русский / AC3 / 48 KHz / 5.1 ch / 448 Kbps
Аудио#2: Французский / AC3 / 48 KHz / 5.1 ch / 640 Kbps

MediaInfo

General
UniqueID : 187625232463766143365933781089698006832 (0x8D274E2B94264AD78327323480614730)
Complete name : F:\Downloads\DerriereLesMurs(3D)2011.halfOU(ash61).mkv
Format : Matroska
File size : 5.83 GiB
Duration : 1h 26mn
Overall bit rate : 9 659 Kbps
Movie name : Derrière les murs (3D) 2011 (Ash61)
Encoded date : UTC 2012-02-09 20:50:15
Writing application : mkvmerge v3.4.0 ('Rapunzel') сборка от May 15 2010 09:38:20
Writing library : libebml v0.8.0 + libmatroska v0.9.0
Video
ID : 1
Format : AVC
Format/Info : Advanced Video Codec
Format profile : High@L4.1
Format settings, CABAC : Yes
Format settings, ReFrames : 4 frames
Codec ID : V_MPEG4/ISO/AVC
Duration : 1h 26mn
Bit rate : 8 378 Kbps
Width : 1 920 pixels
Height : 1 080 pixels
Display aspect ratio : 16:9
Frame rate : 23.976 fps
Color space : YUV
Chroma subsampling : 4:2:0
Bit depth : 8 bits
Scan type : Progressive
Bits/(Pixel*Frame) : 0.169
Stream size : 5.05 GiB (87%)
Title : BDrip by Ash61
Writing library : x264 core 119 r2106 07efeb4
Encoding settings : cabac=1 / ref=4 / deblock=1:-3:-3 / analyse=0x3:0x113 / me=umh / subme=9 / psy=1 / psy_rd=1.00:0.15 / mixed_ref=1 / me_range=16 / chroma_me=1 / trellis=2 / 8x8dct=1 / cqm=0 / deadzone=21,11 / fast_pskip=1 / chroma_qp_offset=-3 / threads=3 / sliced_threads=0 / nr=0 / decimate=1 / interlaced=0 / bluray_compat=0 / constrained_intra=0 / bframes=6 / b_pyramid=2 / b_adapt=2 / b_bias=0 / direct=3 / weightb=1 / open_gop=0 / weightp=2 / keyint=250 / keyint_min=23 / scenecut=40 / intra_refresh=0 / rc_lookahead=60 / rc=crf / mbtree=1 / crf=18.0 / qcomp=0.70 / qpmin=0 / qpmax=69 / qpstep=4 / vbv_maxrate=40000 / vbv_bufsize=40000 / crf_max=0.0 / nal_hrd=none / ip_ratio=1.40 / aq=1:0.70
Audio #1
ID : 2
Format : AC-3
Format/Info : Audio Coding 3
Mode extension : CM (complete main)
Codec ID : A_AC3
Duration : 1h 26mn
Bit rate mode : Constant
Bit rate : 448 Kbps
Channel(s) : 6 channels
Channel positions : Front: L C R, Side: L R, LFE
Sampling rate : 48.0 KHz
Bit depth : 16 bits
Compression mode : Lossy
Stream size : 277 MiB (5%)
Language : Russian
Audio #2
ID : 3
Format : AC-3
Format/Info : Audio Coding 3
Mode extension : CM (complete main)
Codec ID : A_AC3
Duration : 1h 26mn
Bit rate mode : Constant
Bit rate : 640 Kbps
Channel(s) : 6 channels
Channel positions : Front: L C R, Side: L R, LFE
Sampling rate : 48.0 KHz
Bit depth : 16 bits
Compression mode : Lossy
Stream size : 395 MiB (7%)
Language : French
Menu
00:00:00.000 : :01
00:07:08.887 : :02
00:13:35.815 : :03
00:20:54.920 : :04
00:29:02.532 : :05
00:38:28.097 : :06
00:43:48.000 : :07
00:51:57.531 : :08
00:58:32.175 : :09
01:06:46.211 : :10
01:11:01.591 : :11
01:16:52.066 : :12

Скриншоты

Господа копипастеры, пожалуйста, уважайте труд рипперов -
не "забывайте" указывать авторство в своих релизах!
Благодарности релизеру (11)

Торрент:

Статус:

Размер:

Зарегистрирован   [ 2012-02-13 17:46 ]

проверено

5.83 GB