Торренты   
 
 


Ронал-варвар / Ronal Barbaren (Крестен Вестбьерг Андерсен / Kresten Vestbjerg Andersen) [2011 г., Anamorph OverUnder]

Рейтинг 3D:
22 голосов
6.3
Рейтинг фильма:
25 голосов
8.0
 
Вы должны быть авторизированы,
чтобы ставить оценки


Ронал-варвар / Ronal Barbaren
Год выпуска: 2011
Страна: Дания
Жанр: мультфильм, фэнтези, приключения
Продолжительность: 01:29:16
Перевод: Дублированный, закадровый
Режиссер: Крестен Вестбьерг Андерсен / Kresten Vestbjerg Andersen
В ролях: Андерс Юль, Хади Ка-Куш, Лерке Винтер Андерсен, Бриджитт Нильсен, Брайан Лукке, Ларс Миккельсен, Питер Од, Ларс Бом, Оле Теструп, Пребен Кристенсен, Оле Эрнст
Роли озвучивали: Николай Быстров, Александр Пушной, Мария Кожевникова, Никита Джигурда, Сергей Шнуров, Денис Ясик, Анатолий Хропов, Эвелина Блёданс, Сергей Мезенцев, Владимир Скворцов, Илья Барабанов
Описание: В начале мультипликационного фильма рассказывается легенда о происхождении варваров. Когда-то в старину их поработил могущественный демон Заал. И только могучий воин Крон сумел ему противостоять и поразил его своим мечом. Но одновременно демон в битве смертельно ранил Крона. Его крови напились освобождённые люди и обрели силу воина. Так и произошли варвары.
Главный герой не обладает силой воина, не испытывает тяги к походам и времяпрепровождению варваров. Но когда его племя порабощают, он становится единственным варваром, который может его спасти. Ему предстоит посетить шамана, отыскать реликвию и с помощью неё победить злодея. А в этом ему будут помогать музыкант-алебардист, девушка-воин и эльф-проводник..
Доп. информация: Проверено на LG42LW575s не FABрип
Формат 3d: Anamorph O/U
Видео: mkv 1920x1080 AVC 23.976 fp
Аудио: AC-3 448 Kbps 5.1 rus

MediaInfo

General
Unique ID : 168348648403719580577546155723716462494 (0x7EA6C532C2870C1E037BA147C20E879E)
Complete name : C:\Users\igor\Videos\RONAL_BARBAREN_3D.mkv
Format : Matroska
Format version : Version 2
File size : 10.0 GiB
Duration : 1h 29mn
Overall bit rate : 16.1 Mbps
Writing application : Lavf51.12.1
Writing library : Lavf51.12.1
Video
ID : 1
Format : AVC
Format/Info : Advanced Video Codec
Format profile : Baseline@L1.3
Format settings, CABAC : No
Format settings, ReFrames : 1 frame
Format settings, GOP : M=1, N=12
Codec ID : V_MPEG4/ISO/AVC
Duration : 1h 29mn
Bit rate : 15.3 Mbps
Width : 1 920 pixels
Height : 1 080 pixels
Display aspect ratio : 16:9
Frame rate : 23.976 fps
Color space : YUV
Chroma subsampling : 4:2:0
Bit depth : 8 bits
Scan type : Progressive
Bits/(Pixel*Frame) : 0.307
Stream size : 9.53 GiB (95%)
Default : Yes
Forced : No
Audio
ID : 2
Format : AC-3
Format/Info : Audio Coding 3
Mode extension : CM (complete main)
Codec ID : A_AC3
Duration : 1h 29mn
Bit rate mode : Constant
Bit rate : 448 Kbps
Channel(s) : 6 channels
Channel positions : Front: L C R, Side: L R, LFE
Sampling rate : 44.1 KHz
Bit depth : 16 bits
Compression mode : Lossy
Stream size : 286 MiB (3%)
Language : Russian
Default : Yes
Forced : No
Формат 3d: Anamorph OverUnder

Скриншоты




Благодарности релизеру (0)

Торрент:

Статус:

Размер:

Зарегистрирован   [ 2012-02-13 23:00 ]

x закрыто

10.01 GB

 
Комментарии:

1, 2  След.






спасибо
 

Спасибо за мультик
 

Спасибо! Сейчас скачаю и гляну, у меня, кстати, тоже LG42lw575s.
 

афтору респект
 

это FABрип и битрейт явно завышен, лишний трафик только.
 

Спасибо!
 

супер. я как раз не смотрел еще
 

Ура )) я на этот мульт 3 Раза ходил в Кинотеатр ))) ща буду четвёртый раз ухахатываться ))))))
Спасибо ))
 

Не могу понять,написано "Дубляж" а на деле слышна оригинальная озвучка!
 

русский дубляж русской озвучки ))))) ну ошибся человек
 

Короче тут "ЗАКАДРОВЫЙ МНОГОГОЛОСЫЙ" перевод!Как прикрутить дубляж?
 

Спасибо!!
 

KrJuMaN
http://torrents3d.ru/viewtopic.php?t=2036 инструкция
 

поправте поскорее - перевод не "Профессиональный (полное дублирование)", а закадровый!
придется качать заново с нормальным звуком
 

да перевод разочаровал :-(
 

kak opredeljatj kartinka budet na vesj ekran ili s 4jornimi polosami sverhu,snizu
 

 

Топик был перенесен из форума Мультфильмы в форум Архив

Zagruzin
 

привет тридэшники, у мультика оказывается есть возрастное ограничение, хотел с детьми посмотреть но не тут то было...
 

классный мульт
 
amberg123789@mail.ru Профиль 23-Июн-2013 11:12

Страница 1 из 2

1, 2  След.