Торренты   
 
 


Ронал-варвар / Ronal Barbaren (Крестен Вестбьерг Андерсен / Kresten Vestbjerg Andersen) [2011 г., BDRip, 1080p, Anamorph OverUnder]

Рейтинг 3D:
22 голосов
6.3
Рейтинг фильма:
25 голосов
8.0
 
Вы должны быть авторизированы,
чтобы ставить оценки



Ронал-варвар 3D
Ronal Barbaren 3D

Год выпуска: 2011
Страна: Дания
Жанр: мультфильм, фэнтези, приключения
Продолжительность: 01:29:14
Перевод: Дубляж, закадровый многоголосый-Режессеры:
Крестен Вестбьерг Андерсен, Торбьорн Кристофферсен, Филип Эйнштейн Липски
Сценаристы:
Торбьорн Кристофферсен, Крестен Вестбьерг Андерсен, Филип Эйнштейн Липски
Роли озвучивали:
Андерс Юль, Хади Ка-Куш, Лерке Винтер Андерсен, Бриджитт Нильсен, Брайан Лукке, Ларс Миккельсен, Питер Од, Ларс Бом, Оле Теструп, Пребен Кристенсен, Оле Эрнст-Описание:
Ронал — самый нетипичный варвар на Земле. Его не интересуют ни битвы, ни завоевания, ни пиры. Больше всего на свете ему хочется, чтобы все просто оставили его в покое. Но судьба распоряжается иначе. Однажды злобный принц Вольказар, вождь враждебного племени, захватывает всех варваров в плен, чтобы принести их в жертву древним богам и обрести власть над миром. На свободе остается лишь Ронал. И теперь ему вместе с безалаберным бардом Алибером, мускулистой девой-воительницей Зандрой и эльфом-метросексуалом Эльриком предстоит пройти множество испытаний, чтобы освободить свой народ, обрести веру в себя и… найти любовь.- -Качество: BDrip
Контейнер: MKV
Формат 3D: Anamorph OverUnder / Вертикальная анаморфная стереопара
Видео кодек: x264
Аудио кодек: AC3
Видео: AVC, h264, 1920x1080, 23.976 кадр/сек, 6,1 Мбит/сек
Аудио 1: русский; AC3, 6 каналов, 640 Кбит/сек, 48,0 КГц (DUB)
Аудио 2: русский; AC3, 6 каналов, 256 Кбит/сек, 48,0 КГц (MVO)
Аудио 3: датский; AC3, 6 каналов, 640 Кбит/сек, 48,0 КГц (Оригинал)

СКРИНШОТЫ

MI

Общее
Уникальный идентификатор : 188513623223458289056927549323083522939 (0x8DD26737669AE41AA2DE06EABC8C237B)
Полное имя : D:\3D-RuGroup\RonalBarbaren.3D.2011.BD3DRip.Half.OU.x264.AC3.2xRus. Dan.El.mkv
Формат : Matroska
Версия формата : Version 2
Размер файла : 4,86 Гбайт
Продолжительность : 1 ч. 29 м.
Общий поток : 7787 Кбит/сек
Название фильма : RonalBarbaren.3D.2011.BD3DRip.Half.OU.x264.AC3.2xRus. Dan.El
Дата кодирования : UTC 2012-02-14 13:59:11
Программа кодирования : mkvmerge v3.4.0 ('Rapunzel') сборка от May 15 2010 09:38:20
Библиотека кодирования : libebml v0.8.0 + libmatroska v0.9.0
Видео
Идентификатор : 1
Формат : AVC
Формат/Информация : Advanced Video Codec
Профиль формата : High@L4.1
Параметр CABAC формата : Да
Параметр ReFrames формата : 4 кадра
Идентификатор кодека : V_MPEG4/ISO/AVC
Продолжительность : 1 ч. 29 м.
Битрейт : 6096 Кбит/сек
Ширина : 1920 пикселей
Высота : 1080 пикселей
Соотношение сторон : 16:9
Частота кадров : 23,976 кадра/сек
Цветовое пространство : YUV
Субдискретизация насыщенности : 4:2:0
Битовая глубина : 8 бит
Тип развёртки : Прогрессивная
Бит/(Пиксели*Кадры) : 0.123
Размер потока : 3,80 Гбайт (78%)
Заголовок : Rip by itsamna (aka elephant AnTo}{@)
Библиотека кодирования : x264 core 116 r2074 2641b9e
Настройки программы : cabac=1 / ref=4 / deblock=1:-3:-3 / analyse=0x3:0x133 / me=umh / subme=9 / psy=1 / psy_rd=1.00:0.15 / mixed_ref=1 / me_range=16 / chroma_me=1 / trellis=2 / 8x8dct=1 / cqm=0 / deadzone=21,11 / fast_pskip=1 / chroma_qp_offset=-3 / threads=3 / sliced_threads=0 / nr=0 / decimate=1 / interlaced=0 / bluray_compat=0 / constrained_intra=0 / bframes=6 / b_pyramid=2 / b_adapt=2 / b_bias=0 / direct=3 / weightb=1 / open_gop=0 / weightp=2 / keyint=250 / keyint_min=23 / scenecut=40 / intra_refresh=0 / rc_lookahead=60 / rc=crf / mbtree=1 / crf=16.5 / qcomp=0.60 / qpmin=10 / qpmax=69 / qpstep=4 / vbv_maxrate=50000 / vbv_bufsize=50000 / crf_max=0.0 / nal_hrd=none / ip_ratio=1.40 / aq=1:0.70
Язык : Russian
Default : Да
Forced : Нет
Аудио #1
Идентификатор : 2
Формат : AC-3
Формат/Информация : Audio Coding 3
Расширение режима : CM (complete main)
Идентификатор кодека : A_AC3
Продолжительность : 1 ч. 29 м.
Вид битрейта : Постоянный
Битрейт : 640 Кбит/сек
Каналы : 6 каналов
Расположение каналов : Front: L C R, Side: L R, LFE
Частота : 48,0 КГц
Битовая глубина : 16 бит
Метод сжатия : С потерями
Размер потока : 409 Мбайт (8%)
Заголовок : Dub AC3 5.1 640 Kbps
Язык : Russian
Default : Да
Forced : Нет
Аудио #2
Идентификатор : 3
Формат : AC-3
Формат/Информация : Audio Coding 3
Расширение режима : CM (complete main)
Идентификатор кодека : A_AC3
Продолжительность : 1 ч. 29 м.
Вид битрейта : Постоянный
Битрейт : 256 Кбит/сек
Каналы : 6 каналов
Расположение каналов : Front: L C R, Side: L R, LFE
Частота : 48,0 КГц
Битовая глубина : 16 бит
Метод сжатия : С потерями
Размер потока : 163 Мбайт (3%)
Заголовок : MVO AC3 5.1 256 Kbps
Язык : Russian
Default : Нет
Forced : Нет
Аудио #3
Идентификатор : 4
Формат : AC-3
Формат/Информация : Audio Coding 3
Расширение режима : CM (complete main)
Идентификатор кодека : A_AC3
Продолжительность : 1 ч. 29 м.
Вид битрейта : Постоянный
Битрейт : 640 Кбит/сек
Каналы : 6 каналов
Расположение каналов : Front: L C R, Side: L R, LFE
Частота : 48,0 КГц
Битовая глубина : 16 бит
Метод сжатия : С потерями
Размер потока : 409 Мбайт (8%)
Заголовок : Original AC3 5.1 640 Kbps
Язык : Danish
Default : Нет
Forced : Нет
Меню
00:00:00.000 : :01
00:09:15.972 : :02
00:15:16.791 : :03
00:24:42.856 : :04
00:31:34.309 : :05
00:38:47.158 : :06
00:47:34.351 : :07
00:56:31.430 : :08
01:02:02.427 : :09
01:08:37.905 : :10
01:16:10.900 : :11
01:24:47.416 : :12
Остальные раздачи этого фильма (3)
Благодарности релизеру (10)

Торрент:

Статус:

Размер:

Зарегистрирован   [ 2012-02-14 18:29 ]

проверено

4.86 GB

 
 Мнение о фильме (21)

1, 2  След.






спасибо
 

Спасибо за мультик
 

Спасибо! Сейчас скачаю и гляну, у меня, кстати, тоже LG42lw575s.
 

афтору респект
 

это FABрип и битрейт явно завышен, лишний трафик только.
 

Спасибо!
 

супер. я как раз не смотрел еще
 

Ура )) я на этот мульт 3 Раза ходил в Кинотеатр ))) ща буду четвёртый раз ухахатываться ))))))
Спасибо ))
 

Не могу понять,написано "Дубляж" а на деле слышна оригинальная озвучка!
 

русский дубляж русской озвучки ))))) ну ошибся человек
 

Короче тут "ЗАКАДРОВЫЙ МНОГОГОЛОСЫЙ" перевод!Как прикрутить дубляж?
 

Спасибо!!
 

KrJuMaN
http://torrents3d.ru/viewtopic.php?t=2036 инструкция
 

поправте поскорее - перевод не "Профессиональный (полное дублирование)", а закадровый!
придется качать заново с нормальным звуком
 

да перевод разочаровал :-(
 

kak opredeljatj kartinka budet na vesj ekran ili s 4jornimi polosami sverhu,snizu
 

 

Топик был перенесен из форума Мультфильмы в форум Архив

Zagruzin
 

привет тридэшники, у мультика оказывается есть возрастное ограничение, хотел с детьми посмотреть но не тут то было...
 

классный мульт
 
amberg123789@mail.ru Профиль 23-Июн-2013 11:12

Страница 1 из 2

1, 2  След.