Торренты   
 
 

 

Кот в сапогах / Puss in Boots [2011, BDrip, 1080p, Anamorph OverUnder]

Рейтинг 3D:
51 голосов
8.6
Рейтинг фильма:
50 голосов
8.5
 
Вы должны быть авторизированы,
чтобы ставить оценки


Кот в сапогахPuss in Boots
Год выпуска: 2011
Страна: США (DreamWorks Animation)
Жанр: Мультфильм, Приключения, Комедия, Семейный
Продолжительность: 01:30:13
Перевод: Русский дубляж (лицензия) + Украинский дубляж (лицензия)
Русские субтитры: есть
Режиссёр: Крис Миллер / Chris MillerРоли дублировали / Озвучивали:Кот в сапогах - Всеволод Кузнецов / Антонио Бандерас
Киса-Мягколапка - Татьяна Шитова / Сальма Хайек
Шалтай-Болтай - Диомид Виноградов / Зак Галифианакис
Джек - Владимир Зайцев / Билли Боб Торнтон
Джилл - Марина Бакина / Эми Седарис
Имельда - Ирина Киреева / Констанс Мари
...........
Описание: Мечи пересекутся и сердца будут разбиты в приключениях с одним из самых любимых персонажей из Шрэка — котом в сапогах. Это удалая поездка ранних лет кота в сапогах, когда он объединяется с умным Шалтай-Болтаем и сообразительной Кисой, чтобы украсть знаменитую Гусыню, несущую золотые яйца.--Проверено на встроенном плейере ТВ Samsung UE-C7000 --Формат 3d: Anamorph OverUnder
Качество: BDrip
Контейнер: MKV
Видео: AVC / 1920х1080p / 23,976 fps / 7151 Kbps
Аудио#1: Русский / AC3 / 48 KHz / 5.1 ch / 448 Kbps (Дубляж - лицензия)
Аудио#2: Украинский / AC3 / 48 KHz / 5.1 ch / 448 Kbps (Дубляж - лицензия)
Аудио#3: Английский / AC3 / 48 KHz / 5.1 ch / 640 Kbps
Субтитры: внешние srt (русские форсированные [включены по умолчанию] и украинские форсированные) + вшитые softsub srt (русские форсированные, русские полные, украинские форсированные, украинские полные, английские и английские SDH).

MediaInfo

General
UniqueID : 249413655557790128369647769495821569099 (0xBBA352A19096B19AB1394CAF9BEB4C4B)
Complete name : F:\Downloads\PussInBoots(3D)2011.halfOU.Lic(ash61)\PussInBoots(3D)2011.halfOU.Lic(ash61).mkv
Format : Matroska
File size : 5.59 GiB
Duration : 1h 30mn
Overall bit rate : 8 863 Kbps
Movie name : Puss in Boots (3D) 2011 (Ash61)
Encoded date : UTC 2012-03-13 13:39:36
Writing application : mkvmerge v3.4.0 ('Rapunzel') сборка от May 15 2010 09:38:20
Writing library : libebml v0.8.0 + libmatroska v0.9.0
Video
ID : 1
Format : AVC
Format/Info : Advanced Video Codec
Format profile : High@L4.1
Format settings, CABAC : Yes
Format settings, ReFrames : 4 frames
Codec ID : V_MPEG4/ISO/AVC
Duration : 1h 30mn
Bit rate : 7 151 Kbps
Width : 1 920 pixels
Height : 1 080 pixels
Display aspect ratio : 16:9
Frame rate : 23.976 fps
Color space : YUV
Chroma subsampling : 4:2:0
Bit depth : 8 bits
Scan type : Progressive
Bits/(Pixel*Frame) : 0.144
Stream size : 4.51 GiB (81%)
Title : BDrip by Ash61
Writing library : x264 core 119 r2106 07efeb4
Encoding settings : cabac=1 / ref=4 / deblock=1:-3:-3 / analyse=0x3:0x113 / me=umh / subme=9 / psy=1 / psy_rd=1.00:0.15 / mixed_ref=1 / me_range=16 / chroma_me=1 / trellis=2 / 8x8dct=1 / cqm=0 / deadzone=21,11 / fast_pskip=1 / chroma_qp_offset=-3 / threads=3 / sliced_threads=0 / nr=0 / decimate=1 / interlaced=0 / bluray_compat=0 / constrained_intra=0 / bframes=6 / b_pyramid=2 / b_adapt=2 / b_bias=0 / direct=3 / weightb=1 / open_gop=0 / weightp=2 / keyint=250 / keyint_min=23 / scenecut=40 / intra_refresh=0 / rc_lookahead=60 / rc=crf / mbtree=1 / crf=17.0 / qcomp=0.70 / qpmin=0 / qpmax=69 / qpstep=4 / vbv_maxrate=40000 / vbv_bufsize=40000 / crf_max=0.0 / nal_hrd=none / ip_ratio=1.40 / aq=1:0.70
Audio #1
ID : 2
Format : AC-3
Format/Info : Audio Coding 3
Mode extension : CM (complete main)
Codec ID : A_AC3
Duration : 1h 30mn
Bit rate mode : Constant
Bit rate : 448 Kbps
Channel(s) : 6 channels
Channel positions : Front: L C R, Side: L R, LFE
Sampling rate : 48.0 KHz
Bit depth : 16 bits
Compression mode : Lossy
Stream size : 289 MiB (5%)
Title : Dub R5
Language : Russian
Audio #2
ID : 3
Format : AC-3
Format/Info : Audio Coding 3
Mode extension : CM (complete main)
Codec ID : A_AC3
Duration : 1h 30mn
Bit rate mode : Constant
Bit rate : 448 Kbps
Channel(s) : 6 channels
Channel positions : Front: L C R, Side: L R, LFE
Sampling rate : 48.0 KHz
Bit depth : 16 bits
Compression mode : Lossy
Stream size : 289 MiB (5%)
Title : Dub R5
Language : Ukrainian
Audio #3
ID : 4
Format : AC-3
Format/Info : Audio Coding 3
Mode extension : CM (complete main)
Codec ID : A_AC3
Duration : 1h 30mn
Bit rate mode : Constant
Bit rate : 640 Kbps
Channel(s) : 6 channels
Channel positions : Front: L C R, Side: L R, LFE
Sampling rate : 48.0 KHz
Bit depth : 16 bits
Compression mode : Lossy
Stream size : 413 MiB (7%)
Language : English
Text #1
ID : 5
Format : UTF-8
Codec ID : S_TEXT/UTF8
Codec ID/Info : UTF-8 Plain Text
Title : R5 [Forced]
Language : Russian
Text #2
ID : 6
Format : UTF-8
Codec ID : S_TEXT/UTF8
Codec ID/Info : UTF-8 Plain Text
Title : R5
Language : Russian
Text #3
ID : 7
Format : UTF-8
Codec ID : S_TEXT/UTF8
Codec ID/Info : UTF-8 Plain Text
Title : R5 [Forced]
Language : Ukrainian
Text #4
ID : 8
Format : UTF-8
Codec ID : S_TEXT/UTF8
Codec ID/Info : UTF-8 Plain Text
Title : R5
Language : Ukrainian
Text #5
ID : 9
Format : UTF-8
Codec ID : S_TEXT/UTF8
Codec ID/Info : UTF-8 Plain Text
Language : English
Text #6
ID : 10
Format : UTF-8
Codec ID : S_TEXT/UTF8
Codec ID/Info : UTF-8 Plain Text
Title : SDH
Language : English
Menu
00:00:00.000 : :01
00:03:25.247 : :02
00:07:20.148 : :03
00:11:46.831 : :04
00:15:53.369 : :05
00:19:23.537 : :06
00:25:58.348 : :07
00:29:22.427 : :08
00:34:06.461 : :09
00:39:17.438 : :10
00:44:12.108 : :11
00:49:34.054 : :12
00:54:05.951 : :13
00:57:38.205 : :14
01:03:05.991 : :15
01:08:14.716 : :16
01:16:51.774 : :17
01:19:42.194 : :18

Скриншоты

Бонус-Фото

Господа копипастеры, пожалуйста, уважайте труд рипперов -
не "забывайте" указывать авторство в своих релизах!
--13.03.2012 - Релиз обновлён - русская и украинская дороги заменены на лицензии. Скачайте, пожалуйста, заново торрент-файл.
Остальные раздачи этого фильма (5)
Благодарности релизеру (24)

Торрент:

Статус:

Размер:

Зарегистрирован   [ 2012-03-13 20:51 ]

проверено

5.59 GB