Торренты   
 
 


Ронал-варвар 3D / Ronal Barbaren 3D [2011 г., BDRip 1080p,Full OverUnder]

Рейтинг 3D:
4 голосов
6.5
Рейтинг фильма:
7 голосов
3.9
 
Вы должны быть авторизированы,
чтобы ставить оценки



Ронал-варвар 3D
Ronal Barbaren 3D
Год выпуска: 2011
Страна: Дания
Жанр: мультфильм, фэнтези, приключения
Продолжительность: 01:29:18
Перевод: Профессиональный (полное дублирование)--Режессеры:
Крестен Вестбьерг Андерсен, Торбьорн Кристофферсен, Филип Эйнштейн Липски
Сценаристы:
Торбьорн Кристофферсен, Крестен Вестбьерг Андерсен, Филип Эйнштейн Липски
Роли озвучивали:
Андерс Юль, Хади Ка-Куш, Лерке Винтер Андерсен, Бриджитт Нильсен, Брайан Лукке, Ларс Миккельсен, Питер Од, Ларс Бом, Оле Теструп, Пребен Кристенсен, Оле Эрнст--Описание:
Ронал — самый нетипичный варвар на Земле. Его не интересуют ни битвы, ни завоевания, ни пиры. Больше всего на свете ему хочется, чтобы все просто оставили его в покое. Но судьба распоряжается иначе. Однажды злобный принц Вольказар, вождь враждебного племени, захватывает всех варваров в плен, чтобы принести их в жертву древним богам и обрести власть над миром. На свободе остается лишь Ронал. И теперь ему вместе с безалаберным бардом Алибером, мускулистой девой-воительницей Зандрой и эльфом-метросексуалом Эльриком предстоит пройти множество испытаний, чтобы освободить свой народ, обрести веру в себя и… найти любовь.--Качество: BDrip
Контейнер: MKV
Формат 3D: OverUnder / Вертикальная стереопара (Левый ракурс верхний)
Видео кодек: x264
Аудио кодек: Digital Theater Systems
Видео: AVC, h264, 1920x1600, 23.976 кадр/сек, 9 343 Kbps
Аудио 1: русский; DTS, 6 каналов, 755 Кбит/сек, 48,0 КГц (DUB)
Аудио 2: датский; DTS MA, 6 каналов, 1 561 Kbps / 1 510 Kbps, 48,0 КГц (Оригинал)--

СКРИНШОТЫ




MI

Код:
General
Unique ID                        : 252882312259396246133344331824961404844 (0xBE3F5C9C36996823854826581863BFAC)
Complete name                    : L:\_3D\3D-Multiki\RonalBarbaren.3D.2011.BD3DRip.OU -ab.mkv
Format                           : Matroska
File size                        : 7.42 GiB
Duration                         : 1h 29mn
Overall bit rate                 : 11.9 Mbps
Encoded date                     : UTC 2012-02-14 22:40:17
Writing application              : mkvmerge v4.0.0 ('The Stars were mine') сборка от Jun  6 2010 16:18:42
Writing library                  : libebml v1.0.0 + libmatroska v1.0.0
Video
ID                               : 1
Format                           : AVC
Format/Info                      : Advanced Video Codec
Format profile                   : High@L5.0
Format settings, CABAC           : Yes
Format settings, ReFrames        : 5 frames
Codec ID                         : V_MPEG4/ISO/AVC
Duration                         : 1h 29mn
Bit rate                         : 9 343 Kbps
Width                            : 1 920 pixels
Height                           : 1 600 pixels
Display aspect ratio             : 1.200
Frame rate                       : 23.976 fps
Color space                      : YUV
Chroma subsampling               : 4:2:0
Bit depth                        : 8 bits
Scan type                        : Progressive
Bits/(Pixel*Frame)               : 0.127
Stream size                      : 5.83 GiB (79%)
Writing library                  : x264 core 116 r2074 2641b9e
Encoding settings                : cabac=1 / ref=5 / deblock=1:-3:-3 / analyse=0x3:0x113 / me=umh / subme=9 / psy=1 / psy_rd=1.00:0.15 / mixed_ref=1 / me_range=16 / chroma_me=1 / trellis=2 / 8x8dct=1 / cqm=0 / deadzone=21,11 / fast_pskip=1 / chroma_qp_offset=-3 / threads=6 / sliced_threads=0 / nr=0 / decimate=1 / interlaced=0 / bluray_compat=0 / constrained_intra=0 / bframes=6 / b_pyramid=2 / b_adapt=2 / b_bias=0 / direct=3 / weightb=1 / open_gop=0 / weightp=2 / keyint=250 / keyint_min=23 / scenecut=40 / intra_refresh=0 / rc_lookahead=60 / rc=crf / mbtree=1 / crf=18.0 / qcomp=0.60 / qpmin=0 / qpmax=69 / qpstep=4 / vbv_maxrate=50000 / vbv_bufsize=50000 / crf_max=0.0 / nal_hrd=none / ip_ratio=1.40 / aq=1:0.70
Language                         : Danish
Audio #1
ID                               : 2
Format                           : DTS
Format/Info                      : Digital Theater Systems
Codec ID                         : A_DTS
Duration                         : 1h 29mn
Bit rate mode                    : Constant
Bit rate                         : 755 Kbps
Channel(s)                       : 6 channels
Channel positions                : Front: L C R, Side: L R, LFE
Sampling rate                    : 48.0 KHz
Bit depth                        : 24 bits
Compression mode                 : Lossy
Stream size                      : 482 MiB (6%)
Language                         : Russian
Audio #2
ID                               : 3
Format                           : DTS
Format/Info                      : Digital Theater Systems
Format profile                   : MA / Core
Codec ID                         : A_DTS
Duration                         : 1h 29mn
Bit rate mode                    : Variable
Bit rate                         : 1 561 Kbps / 1 510 Kbps
Channel(s)                       : 6 channels
Channel positions                : Front: L C R, Side: L R, LFE
Sampling rate                    : 48.0 KHz
Bit depth                        : 16 bits
Compression mode                 : Lossless / Lossy
Language                         : Danish
Благодарности релизеру (5)

Торрент:

Статус:

Размер:

Зарегистрирован   [ 2012-02-15 03:52 ]

проверено

7.42 GB