Торренты   
 
 


Грибы / One Way Trip [2011, BDrip, 1080p, Anamorph OverUnder]

Рейтинг 3D:
22 голосов
6.7
Рейтинг фильма:
21 голосов
5.8
 
Вы должны быть авторизированы,
чтобы ставить оценки


ГрибыOne Way Trip
Год выпуска: 2011
Страна: Швейцария, Австрия (HesseGreutert Film AG, Superfilm)
Жанр: Ужасы, Триллер
Продолжительность: 01:29:24
Перевод: Профессиональный (дублированный)
Режиссер: Маркус Вельтер / Markus Welter
В ролях: Сабрина Рейтер, Мелани Винигер, Херберт Лайзер, Мартин Лус, Аарон Хиц, Маттиас Бритшджи, Саймон Кэсер, Изабелль Барт, Гарри Лампль, Таня Рауниг
Описание: В центре событий группа молодых людей отправившихся в лес на поиски галлюциногенных грибов. Добравшись до места, они начинают сбор грибов, а вечером решают немного оттянуться. Веселье заканчивается, когда один из ребят, отлучившийся за пивом, возвращается с разбитым в кровь лицом. Что с ним случилось, он понятия не имеет. Ребята решают срочно уйти из леса, но обнаруживают, что их машина кем-то сломана, а телефоны не работают. Они решают искать помощи на ближайшей ферме, которую они приметили по дороге в лес. Но туда не стоило идти. Неизвестные охотники начинают убивать ребят одного за другим…
Доп. информация: Не забывайте обращать внимание на рейтинги! :)
За исходник спасибо - amazon by --Проверено на встроенном плейере ТВ Samsung UE-C7000 --Формат 3d: Anamorph OverUnder
Качество: BDrip
Контейнер: MKV
Видео: AVC / 1920х1080p / 23,976 fps / 14.4 Mbps
Аудио: Русский / AC3 / 48 KHz / 5.1 ch / 640 Kbps

MediaInfo

General
UniqueID : 173532221723540648214403901244160373308 (0x828D171838B62B56B6E30C282D1C723C)
Complete name : F:\Downloads\OneWayTrip(3D)2011.halfOU(ash61).mkv
Format : Matroska
File size : 9.59 GiB
Duration : 1h 29mn
Overall bit rate : 15.4 Mbps
Movie name : One Way Trip (3D) 2011 (Ash61)
Encoded date : UTC 2012-02-16 09:22:15
Writing application : mkvmerge v3.4.0 ('Rapunzel') сборка от May 15 2010 09:38:20
Writing library : libebml v0.8.0 + libmatroska v0.9.0
Video
ID : 1
Format : AVC
Format/Info : Advanced Video Codec
Format profile : High@L4.1
Format settings, CABAC : Yes
Format settings, ReFrames : 4 frames
Codec ID : V_MPEG4/ISO/AVC
Duration : 1h 29mn
Bit rate : 14.4 Mbps
Width : 1 920 pixels
Height : 1 080 pixels
Display aspect ratio : 16:9
Frame rate : 23.976 fps
Color space : YUV
Chroma subsampling : 4:2:0
Bit depth : 8 bits
Scan type : Progressive
Bits/(Pixel*Frame) : 0.290
Stream size : 9.00 GiB (94%)
Title : BDrip by Ash61
Writing library : x264 core 119 r2106 07efeb4
Encoding settings : cabac=1 / ref=4 / deblock=1:-3:-3 / analyse=0x3:0x113 / me=umh / subme=9 / psy=1 / psy_rd=1.00:0.15 / mixed_ref=1 / me_range=16 / chroma_me=1 / trellis=1 / 8x8dct=1 / cqm=0 / deadzone=21,11 / fast_pskip=1 / chroma_qp_offset=-3 / threads=3 / sliced_threads=0 / nr=0 / decimate=1 / interlaced=0 / bluray_compat=0 / constrained_intra=0 / bframes=6 / b_pyramid=2 / b_adapt=2 / b_bias=0 / direct=3 / weightb=1 / open_gop=0 / weightp=2 / keyint=250 / keyint_min=23 / scenecut=40 / intra_refresh=0 / rc_lookahead=60 / rc=crf / mbtree=1 / crf=18.0 / qcomp=0.70 / qpmin=0 / qpmax=69 / qpstep=4 / vbv_maxrate=40000 / vbv_bufsize=40000 / crf_max=0.0 / nal_hrd=none / ip_ratio=1.40 / aq=1:0.70
Audio
ID : 2
Format : AC-3
Format/Info : Audio Coding 3
Mode extension : CM (complete main)
Codec ID : A_AC3
Duration : 1h 29mn
Bit rate mode : Constant
Bit rate : 640 Kbps
Channel(s) : 6 channels
Channel positions : Front: L C R, Side: L R, LFE
Sampling rate : 48.0 KHz
Bit depth : 16 bits
Compression mode : Lossy
Stream size : 409 MiB (4%)
Title : Дубляж
Language : Russian
Menu
00:00:00.000 : :01
00:08:23.253 : :02
00:17:58.411 : :03
00:25:40.914 : :04
00:32:59.686 : :05
00:43:47.708 : :06
00:54:00.028 : :07
01:03:59.878 : :08
01:11:29.285 : :09
01:24:11.964 : :10

Скриншоты

Господа копипастеры, пожалуйста, уважайте труд рипперов -
не "забывайте" указывать авторство в своих релизах!
Остальные раздачи этого фильма (2)
Благодарности релизеру (32)

Торрент:

Статус:

Размер:

Зарегистрирован   [ 2012-02-16 16:07 ]

проверено

9.59 GB

 
 Мнение о фильме (18)





в 2д смотрел, буэээ...
 

в 2д смотрел, буэээ...
Да ладно вам - обычный фильм о вредном влиянии распития пива с грибочками (необычными) в незнакомых местах отдыха )) А если ещё смотреть в 3Д после грибочков (обычных) с водочкой - то ваще шедевр.
 

zhuk.m
кому как, я такие "шедевры" не люблю
кстати, посмотреть пытались семьей "смешариков начало", такая бредятина, ужас просто!!!
 

Спасибо, фильм на раз посмотреть, для любителей жанра, но большой плюс, что в 3D.
 

к релизу никаких претензий, все отлично, но фильм - хрень полнейшая.. я даже не понимаю откуда такие высокие для этого фильма оценки 3,83 и 4,4..
 

Фильм конечно смотреть не интересно после Грибов 2007 года с похожим сюжетом, отсюда и оценки...
Между тем 3D вполне неплохое, на твердые 3.5.
 

Спасибо за фильм эффект 3D классный
 

Отличный фильм.
 

какое 3 д это просто глазовертки какие то вы что это смотреть даже не возможно...кто это сделал руки оторвать...
 

Первая часть намного интересней
 

зачем этот фильм вообще снимали. бред.
 

Фильм классный,но не для 3 д
 

Нормально их вштырило. А вообще так атмосферно , когда ночью в лесу в палаточном лагере, хороший эффект присутствия.
 

Средненький фильм. 3Д на ''хорошо''. Вылеты присутствуют.
 

Ерунда, даже не досмотрел
 

Нормальный фильм, хорошо что в 3D, больше жути.
 

Полная ерунда. Не досмотрел.
 

Плохой фильм. На перемотке, и то еле-еле...