Торренты   
 
 

 

Кот в сапогах 3D / Puss in Boots 3D (Крис Миллер) [2011 г., Anamorph SideBySide]

Рейтинг 3D:
51 голосов
8.6
Рейтинг фильма:
50 голосов
8.5
 
Вы должны быть авторизированы,
чтобы ставить оценки


Кот в сапогах 3D / Puss in Boots 3D
Год выпуска: 2011
Страна: США
Студия: Buckaroo Entertainment
Жанр: мультфильм, фэнтези, комедия, приключения
Продолжительность: 01:30:14
Перевод: Профессиональный (дублированный) лицензия
Русские субтитры: есть
Режиссер на русском: Крис Миллер
Режиссер на английском: Chris Miller
В ролях: Антонио Бандерас, Сальма Хайек,
Зак Галифианакис, Билли Боб Торнтон, Эми Седарис,
Констанс Мари, Гильермо дель Торо, Рич Дитль, Райан Крего, Том Вилер
Роли озвучивали:
Кот в сапогах - Всеволод Кузнецов
Киса-Мягколапка - Татьяна Шитова
Шалтай-Болтай - Диомид Виноградов
Джек - Владимир Зайцев
Джилл - Марина Бакина
Имельда - Ирина Киреева
Описание: Мечи пересекутся и сердца будут разбиты в приключениях
с одним из самых любимых персонажей из Шрэка — котом в сапогах.
Это удалая поездка ранних лет кота в сапогах, когда он объединяется с умным Шалтай-Болтаем
и сообразительной Китти, чтобы украсть знаменитого Гуся,
несущего золотые яйца.--

--Качество: BDrip
Контейнер: MKV
Формат 3D: Half SideBySide / Горизонтальная анаморфная стереопара
Порядок ракурсов: левый ракурс первый
Видео кодек: x264
Аудио кодек: AC3
Видео: Видео: AVC / 1920х1080p / 23.976 fps / 10,0 Mbps
Аудио 1: Русский / AC3 / 48.0 KHz / 5.1 ch / 448 Kbps
Аудио 2: Русский/ AC3 / 48.0 KHz / 5.1 ch / 640 Kbps - Гаврилов (одноголосый)
Аудио 3: Английский / AC3 / 44.1 KHz / 5.1 ch /320 Kbps
Аудио 4: Украинский / AC3 / 48.0 KHz / 6.0 ch /448 Kbps
Субтитры: Rus [voronine], English (str)

MediaInfo

General
Общее
Уникальный идентификатор : 181197572815717844255449475390188580245 (0x885162150B4B526FB77E14A5A0946D95)
Полное имя : E:\кино\Puss in Boots 3D Half.mkv.mkv
Формат : Matroska
Версия формата : Version 2
Размер файла : 6,96 Гбайт
Продолжительность : 1 ч. 30 м.
Общий поток : 11,0 Мбит/сек
Название фильма : Puss in Boots 3D Half-SBS
Дата кодирования : UTC 2012-02-16 13:42:30
Программа кодирования : mkvmerge v5.0.1 ('Es ist Sommer') built on Oct 30 2011 21:53:49
Библиотека кодирования : libebml v1.2.2 + libmatroska v1.3.0
Видео
Идентификатор : 1
Формат : AVC
Формат/Информация : Advanced Video Codec
Профиль формата : High@L4.1
Параметр CABAC формата : Да
Параметр ReFrames формата : 4 кадра
Режим смешивания : Header stripping
Идентификатор кодека : V_MPEG4/ISO/AVC
Продолжительность : 1 ч. 30 м.
Битрейт : 10000 Кбит/сек
Ширина : 1920 пикселей
Высота : 1080 пикселей
Соотношение сторон : 16:9
Частота кадров : 23,976 кадра/сек
Цветовое пространство : YUV
Субдискретизация насыщенности : 4:2:0
Битовая глубина : 8 бит
Тип развёртки : Прогрессивная
Бит/(Пиксели*Кадры) : 0.201
Размер потока : 6,14 Гбайт (88%)
Библиотека кодирования : x264 core 120 r2146 bcd41db
Настройки программы : cabac=1 / ref=3 / deblock=1:0:0 / analyse=0x3:0x113 / me=hex / subme=7 / psy=1 / psy_rd=1.00:0.00 / mixed_ref=1 / me_range=16 / chroma_me=1 / trellis=1 / 8x8dct=1 / cqm=0 / deadzone=21,11 / fast_pskip=1 / chroma_qp_offset=-2 / threads=12 / sliced_threads=0 / nr=0 / decimate=1 / interlaced=0 / bluray_compat=0 / constrained_intra=0 / bframes=3 / b_pyramid=2 / b_adapt=1 / b_bias=0 / direct=1 / weightb=1 / open_gop=0 / weightp=2 / keyint=250 / keyint_min=23 / scenecut=40 / intra_refresh=0 / rc_lookahead=40 / rc=abr / mbtree=1 / bitrate=10000 / ratetol=1.0 / qcomp=0.60 / qpmin=0 / qpmax=69 / qpstep=4 / ip_ratio=1.40 / aq=1:1.00
Язык : English
Default : Да
Forced : Нет
Аудио #1
Идентификатор : 2
Формат : AC-3
Формат/Информация : Audio Coding 3
Расширение режима : CM (complete main)
Режим смешивания : Header stripping
Идентификатор кодека : A_AC3
Продолжительность : 1 ч. 30 м.
Вид битрейта : Постоянный
Битрейт : 448 Кбит/сек
Каналы : 6 каналов
Расположение каналов : Front: L C R, Side: L R, LFE
Частота : 48,0 КГц
Битовая глубина : 16 бит
Метод сжатия : С потерями
Размер потока : 289 Мбайт (4%)
Язык : Russian
Default : Да
Forced : Нет
Аудио #2
Идентификатор : 3
Формат : AC-3
Формат/Информация : Audio Coding 3
Расширение режима : CM (complete main)
Режим смешивания : Header stripping
Идентификатор кодека : A_AC3
Продолжительность : 1 ч. 30 м.
Вид битрейта : Постоянный
Битрейт : 320 Кбит/сек
Каналы : 2 канала
Расположение каналов : Front: L R
Частота : 44,1 КГц
Битовая глубина : 16 бит
Метод сжатия : С потерями
Размер потока : 207 Мбайт (3%)
Язык : Ukrainian
Default : Нет
Forced : Нет
Аудио #3
Идентификатор : 4
Формат : AC-3
Формат/Информация : Audio Coding 3
Расширение режима : CM (complete main)
Режим смешивания : Header stripping
Идентификатор кодека : A_AC3
Продолжительность : 1 ч. 30 м.
Вид битрейта : Постоянный
Битрейт : 320 Кбит/сек
Каналы : 6 каналов
Расположение каналов : Front: L C R, Side: L R, LFE
Частота : 44,1 КГц
Битовая глубина : 16 бит
Метод сжатия : С потерями
Размер потока : 207 Мбайт (3%)
Язык : Finnish
Default : Нет
Forced : Нет
Текст #1
Идентификатор : 5
Формат : UTF-8
Идентификатор кодека : S_TEXT/UTF8
Идентификатор кодека/Информация : UTF-8 Plain Text
Заголовок : [voronine]
Язык : Russian
Default : Нет
Forced : Нет
Текст #2
Идентификатор : 6
Формат : UTF-8
Идентификатор кодека : S_TEXT/UTF8
Идентификатор кодека/Информация : UTF-8 Plain Text
Язык : English
Default : Нет
Forced : Нет

Скриншоты

28.03.2012 - Релиз обновлён -добавлен одноголосый перевод от Гаврилова + Украинский лицензия . Скачайте, пожалуйста, заново торрент-файл.
Остальные раздачи этого фильма (5)
Благодарности релизеру (1)

Торрент:

Статус:

Размер:

Зарегистрирован   [ 2012-03-28 12:31 ]

* не проверено

7.44 GB