Торренты   
 
 

 

Теккен: Кровная месть 3D / Tekken: Blood Vengeance (Мори Ёити) [2011 г., BDRip, 1080p, Anamorph SideBySide]

Рейтинг 3D:
6 голосов
8.3
Рейтинг фильма:
6 голосов
6.7
 
Вы должны быть авторизированы,
чтобы ставить оценки


Теккен: Кровная месть / Tekken: Blood Vengeance
Год выпуска: 2011
Страна: Япония
Жанр: Фантастика, Боевые искусства
Продолжительность: 01:32:10
Перевод: Любительский (многоголосый, закадровый)
Режиссер: Мори Ёити
В ролях: Тиба Иссин, Юки Мацуока, Аманда Селин Миллер, Мамору Мияно, Рётаро Окиаю, Маая Сакамото, Акено Ватанабе
Описание: Лин Сяою, мастер китайских боевых искусств, получает задание от Анны Вильямс из корпорации G, находящейся под командованием Казуи Мисима. Задача Лин состоит в том, чтобы проникнуть в качестве шпиона в Киотскую международную школу и найти студента по имени Син Камия. Однако Син совершает самоубийство по неизвестной причине, и раcследование Сяою заходит в тупик. После этого Лин встречает таинственную девушку по имени Алиса, и они продолжают расследование вместе. Они узнают, что Син, вероятно, был кем-то похищен. Сяою хочет спасти Сина, для этого она начинает самостоятельное расследование, но она попадает в огромные владения корпорации Мисима Заибацу, которые скрывают тайные родственные заговоры с участием членов семьи Мисима - Дзина Казама, Казуи Мисима и вероятнее всего скончавшегося Хейхати Мисима
Формат 3d: Anamorph SideBySide
Видео: MPEG-4 AVC, 10 Мбит/с, 1920x1080, 23.98fps
Аудио-1: Русский (AC3, 6 ch, 448 Кбит/с) Любительский многоголосый (AniFilm)
Аудио-2: Русский (AC3, 6 ch, 640 Кбит/с) Любительский многоголосый (AnimeSpace)
Аудио-3: Русский (AC3, 6 ch, 448 Кбит/с) Любительский двухголосый (Inspector Gadjet & Nika Lenina)
Аудио-4: Русский (AC3, 6 ch, 448 Кбит/с) Любительский одноголосый (@PD)
Аудио-5: Японский (DTS, 6 ch, 768 Кбит/с)
Аудио-6: Aнглийский (DTS, 6 ch, 768 Кбит/с)
Субтитры: Русские UTF-8

Скриншоты

MI

General
Unique ID : 227277997802826440702780779605208717044 (0xAAFC2671563FA739BAC8A37B398DD6F4)
Complete name : C:\Users\Sergei\Videos\Tekken.Krovnaja.Mest.3D.GP.2011.Lm.мультик.x264.BDRip.1080p.mkv
Format : Matroska
Format version : Version 2
File size : 8.50 GiB
Duration : 1h 32mn
Overall bit rate : 13.2 Mbps
Movie name : Tekken: Blood Vengeance 3D Release BD3D.SU//Теккен: Кровная месть 3D Релиз BD3D.SU
Encoded date : UTC 2011-12-09 17:26:33
Writing application : mkvmerge v4.6.0 ('Still Crazy After All These Years') сборка от Mar 10 2011 02:50:32
Writing library : libebml v1.2.0 + libmatroska v1.1.0
Video
ID : 1
Format : AVC
Format/Info : Advanced Video Codec
Format profile : High@L4.0
Format settings, CABAC : Yes
Format settings, ReFrames : 4 frames
Codec ID : V_MPEG4/ISO/AVC
Duration : 1h 32mn
Bit rate : 9 443 Kbps
Nominal bit rate : 10 000 Kbps
Width : 1 920 pixels
Height : 1 080 pixels
Display aspect ratio : 16:9
Frame rate mode : Variable
Frame rate : 23.976 fps
Color space : YUV
Chroma subsampling : 4:2:0
Bit depth : 8 bits
Scan type : Progressive
Bits/(Pixel*Frame) : 0.190
Stream size : 6.08 GiB (72%)
Title : Tekken: Blood Vengeance 3D Release BD3D.SU//Теккен: Кровная месть 3D Релиз BD3D.SU
Writing library : x264 core 107 r1745 4785e8e
Encoding settings : cabac=1 / ref=3 / deblock=1:0:0 / analyse=0x3:0x113 / me=hex / subme=7 / psy=1 / psy_rd=1.00:0.00 / mixed_ref=1 / me_range=16 / chroma_me=1 / trellis=1 / 8x8dct=1 / cqm=0 / deadzone=21,11 / fast_pskip=1 / chroma_qp_offset=-2 / threads=6 / sliced_threads=0 / nr=0 / decimate=1 / interlaced=0 / constrained_intra=0 / bframes=3 / b_pyramid=2 / b_adapt=1 / b_bias=0 / direct=1 / weightb=1 / open_gop=0 / weightp=2 / keyint=250 / keyint_min=25 / scenecut=40 / intra_refresh=0 / rc_lookahead=40 / rc=abr / mbtree=1 / bitrate=10000 / ratetol=1.0 / qcomp=0.60 / qpmin=10 / qpmax=51 / qpstep=4 / ip_ratio=1.41 / aq=1:1.00
Language : English
Audio #1
ID : 2
Format : AC-3
Format/Info : Audio Coding 3
Mode extension : CM (complete main)
Codec ID : A_AC3
Duration : 1h 32mn
Bit rate mode : Constant
Bit rate : 448 Kbps
Channel(s) : 6 channels
Channel positions : Front: L C R, Side: L R, LFE
Sampling rate : 48.0 KHz
Bit depth : 16 bits
Compression mode : Lossy
Stream size : 295 MiB (3%)
Title : AniFilm
Language : Russian
Audio #2
ID : 3
Format : AC-3
Format/Info : Audio Coding 3
Mode extension : CM (complete main)
Codec ID : A_AC3
Duration : 1h 32mn
Bit rate mode : Constant
Bit rate : 640 Kbps
Channel(s) : 6 channels
Channel positions : Front: L C R, Side: L R, LFE
Sampling rate : 48.0 KHz
Bit depth : 16 bits
Compression mode : Lossy
Stream size : 422 MiB (5%)
Title : AnimeSpace
Language : Russian
Audio #3
ID : 4
Format : AC-3
Format/Info : Audio Coding 3
Mode extension : CM (complete main)
Codec ID : A_AC3
Duration : 1h 32mn
Bit rate mode : Constant
Bit rate : 448 Kbps
Channel(s) : 6 channels
Channel positions : Front: L C R, Side: L R, LFE
Sampling rate : 48.0 KHz
Bit depth : 16 bits
Compression mode : Lossy
Stream size : 295 MiB (3%)
Title : Inspector Gadjet & Nika Lenina
Language : Russian
Audio #4
ID : 5
Format : AC-3
Format/Info : Audio Coding 3
Mode extension : CM (complete main)
Codec ID : A_AC3
Duration : 1h 32mn
Bit rate mode : Constant
Bit rate : 448 Kbps
Channel(s) : 6 channels
Channel positions : Front: L C R, Side: L R, LFE
Sampling rate : 48.0 KHz
Bit depth : 16 bits
Compression mode : Lossy
Stream size : 295 MiB (3%)
Title : @PD
Language : Russian
Audio #5
ID : 6
Format : DTS
Format/Info : Digital Theater Systems
Codec ID : A_DTS
Duration : 1h 32mn
Bit rate mode : Constant
Bit rate : 755 Kbps
Channel(s) : 6 channels
Channel positions : Front: L C R, Side: L R, LFE
Sampling rate : 48.0 KHz
Bit depth : 16 bits
Compression mode : Lossy
Stream size : 497 MiB (6%)
Language : Japanese
Audio #6
ID : 7
Format : DTS
Format/Info : Digital Theater Systems
Codec ID : A_DTS
Duration : 1h 32mn
Bit rate mode : Constant
Bit rate : 755 Kbps
Channel(s) : 6 channels
Channel positions : Front: L C R, Side: L R, LFE
Sampling rate : 48.0 KHz
Bit depth : 16 bits
Compression mode : Lossy
Stream size : 497 MiB (6%)
Language : English
Text
ID : 8
Format : UTF-8
Codec ID : S_TEXT/UTF8
Codec ID/Info : UTF-8 Plain Text
Language : Russian
Благодарности релизеру (2)

Торрент:

Статус:

Размер:

Зарегистрирован   [ 2012-02-17 13:17 ]

* не проверено

8.5 GB