Торренты   
 
 


Смешарики. Начало. [2011 г., BDRip, 1080p, Full OverUnder]

Рейтинг 3D:
Пока никто не голосовал
Рейтинг фильма:
Пока никто не голосовал
 
Вы должны быть авторизированы,
чтобы ставить оценки


Смешарики. Начало.
Год выпуска: 2011
Страна: Россия
Жанр: мультфильм, семейный
Продолжительность: 01:30:56
Перевод: Не требуется--Режиссер: Денис Чернов--В ролях: Михаил Черняк (Копатыч, Лосяш, Пин, озвучка), Сергей Мардарь (Кар-Карыч, Совунья, озвучка), Антон Виноградов (Крош, озвучка), Владимир Постников (Ёжик, озвучка), Светлана Письмиченко (Нюша, озвучка), Вадим Бочанов (Бараш, озвучка), Михаил Хрусталев (озвучка), Станислав Концевич (озвучка), Владимир Маслаков (Мыш, озвучка), Ксения Бржезовская (озвучка), Алена Поликовская (озвучка), Сергей Васильев (озвучка)--Описание: Такую экстремальную историю про Смешариков вы не могли себе представить: покинув свою уютную страну, Смешарики оказываются в современном мегаполисе в роли супергероев! Зачем? Они приняли очень важное для себя решение - спасти мир от нависшей угрозы. Этот «ответственный» шаг приводит к самому захватывающему приключению в их жизни!--Формат 3D: OverUnder / Вертикальная стереопара (левый ракурс верхний)
Качество: BDrip
Контейнер: MKV
Видео кодек: x264
Аудио кодек: DTS
Видео: AVC / 1920х2160 / 23,976 fps / 14.2 Mbps
Аудио: Русский / DTS / 48 KHz / 5.1 ch / 1510 Kbps--

МедиаИнфо:

Код:
General
Unique ID                        : 206902785639145488335643933233798938054 (0x9BA806EC5A4C2485B0B2862F41837DC6)
Complete name                    : L:\_3D\3D-Multiki\Smeshariki_Nachalo.3DBDrip.1080p.OU.mkv
Format                           : Matroska
File size                        : 10.2 GiB
Duration                         : 1h 30mn
Overall bit rate                 : 16.0 Mbps
Encoded date                     : UTC 2012-02-17 17:28:07
Writing application              : mkvmerge v4.0.0 ('The Stars were mine') сборка от Jun  6 2010 16:18:42
Writing library                  : libebml v1.0.0 + libmatroska v1.0.0
Video
ID                               : 1
Format                           : AVC
Format/Info                      : Advanced Video Codec
Format profile                   : High@L5.0
Format settings, CABAC           : Yes
Format settings, ReFrames        : 5 frames
Codec ID                         : V_MPEG4/ISO/AVC
Duration                         : 1h 30mn
Bit rate                         : 14.2 Mbps
Width                            : 1 920 pixels
Height                           : 2 160 pixels
Display aspect ratio             : 0.889
Frame rate                       : 23.976 fps
Color space                      : YUV
Chroma subsampling               : 4:2:0
Bit depth                        : 8 bits
Scan type                        : Progressive
Bits/(Pixel*Frame)               : 0.143
Stream size                      : 9.02 GiB (89%)
Writing library                  : x264 core 116 r2074 2641b9e
Encoding settings                : cabac=1 / ref=5 / deblock=1:-3:-3 / analyse=0x3:0x113 / me=umh / subme=9 / psy=1 / psy_rd=1.00:0.15 / mixed_ref=1 / me_range=16 / chroma_me=1 / trellis=2 / 8x8dct=1 / cqm=0 / deadzone=21,11 / fast_pskip=1 / chroma_qp_offset=-3 / threads=6 / sliced_threads=0 / nr=0 / decimate=1 / interlaced=0 / bluray_compat=0 / constrained_intra=0 / bframes=6 / b_pyramid=2 / b_adapt=2 / b_bias=0 / direct=3 / weightb=1 / open_gop=0 / weightp=2 / keyint=250 / keyint_min=23 / scenecut=40 / intra_refresh=0 / rc_lookahead=60 / rc=crf / mbtree=1 / crf=18.0 / qcomp=0.60 / qpmin=0 / qpmax=69 / qpstep=4 / vbv_maxrate=50000 / vbv_bufsize=50000 / crf_max=0.0 / nal_hrd=none / ip_ratio=1.40 / aq=1:0.70
Language                         : Russian
Audio
ID                               : 2
Format                           : DTS
Format/Info                      : Digital Theater Systems
Codec ID                         : A_DTS
Duration                         : 1h 30mn
Bit rate mode                    : Constant
Bit rate                         : 1 510 Kbps
Channel(s)                       : 6 channels
Channel positions                : Front: L C R, Side: L R, LFE
Sampling rate                    : 48.0 KHz
Bit depth                        : 24 bits
Compression mode                 : Lossy
Stream size                      : 982 MiB (9%)
Language                         : Russian

Скриншоты:




Благодарности релизеру (1)

Торрент:

Статус:

Размер:

Зарегистрирован   [ 2012-02-17 22:27 ]

проверено

10.18 GB