Торренты   
 
 

 

Смешарики. Начало (Денис Чернов) [2011, BDrip, 1080p, Anamorph OverUnder]

Рейтинг 3D:
7 голосов
7.3
Рейтинг фильма:
7 голосов
7.1
 
Вы должны быть авторизированы,
чтобы ставить оценки


Смешарики. Начало
Год выпуска: 2011
Страна: Россия (Студия анимации "Петербург", Bazelevs, Рики)
Жанр: Мультфильм, Комедия, Семейный
Продолжительность: 01:30:55
Перевод: Не требуется
Режиссер: Денис Чернов
Роли озвучивали: Михаил Черняк (Копатыч, Лосяш, Пин), Сергей Мардарь (Кар-Карыч, Совунья), Антон Виноградов (Крош), Владимир Постников (Ёжик), Светлана Письмиченко (Нюша), Вадим Бочанов (Бараш), Михаил Хрусталев, Станислав Концевич, Владимир Маслаков, Ксения Бржезовская, Алена Поликовская, Сергей Васильев...
Описание: Такую экстремальную историю про Смешариков вы не могли себе представить: покинув свою уютную страну, Смешарики оказываются в современном мегаполисе в роли супергероев! Зачем? Они приняли очень важное для себя решение — спасти мир от нависшей угрозы. Этот «ответственный» шаг приводит к самому захватывающему приключению в их жизни!--За исходник спасибо и crazy_gringo--Проверено на встроенном плейере ТВ Samsung UE-C7000 --Формат 3d: Anamorph OverUnder
Качество: BDrip
Контейнер: MKV
Видео: AVC / 1920х1080p / 23,976 fps / 8951 Kbps
Аудио: Русский / AC3 / 48 KHz / 5.1 ch / 640 Kbps

MediaInfo

General
UniqueID : 247693589423250708828653332212347804233 (0xBA580CD2B7C6A87FA385F1A6713F9A49)
Complete name : F:\Downloads\Smeshariki.Nachalo(3D)2011.halfOU(ash61).mkv
Format : Matroska
File size : 6.22 GiB
Duration : 1h 30mn
Overall bit rate : 9 785 Kbps
Movie name : Смешарики. Начало (3D) 2011 (Ash61)
Encoded date : UTC 2012-02-17 17:44:57
Writing application : mkvmerge v3.4.0 ('Rapunzel') сборка от May 15 2010 09:38:20
Writing library : libebml v0.8.0 + libmatroska v0.9.0
Video
ID : 1
Format : AVC
Format/Info : Advanced Video Codec
Format profile : High@L4.1
Format settings, CABAC : Yes
Format settings, ReFrames : 4 frames
Codec ID : V_MPEG4/ISO/AVC
Duration : 1h 30mn
Bit rate : 8 951 Kbps
Width : 1 920 pixels
Height : 1 080 pixels
Display aspect ratio : 16:9
Frame rate : 23.976 fps
Color space : YUV
Chroma subsampling : 4:2:0
Bit depth : 8 bits
Scan type : Progressive
Bits/(Pixel*Frame) : 0.180
Stream size : 5.69 GiB (91%)
Title : BDrip by Ash61
Writing library : x264 core 119 r2106 07efeb4
Encoding settings : cabac=1 / ref=4 / deblock=1:-3:-3 / analyse=0x3:0x113 / me=umh / subme=9 / psy=1 / psy_rd=1.00:0.15 / mixed_ref=1 / me_range=16 / chroma_me=1 / trellis=2 / 8x8dct=1 / cqm=0 / deadzone=21,11 / fast_pskip=1 / chroma_qp_offset=-3 / threads=3 / sliced_threads=0 / nr=0 / decimate=1 / interlaced=0 / bluray_compat=0 / constrained_intra=0 / bframes=6 / b_pyramid=2 / b_adapt=2 / b_bias=0 / direct=3 / weightb=1 / open_gop=0 / weightp=2 / keyint=250 / keyint_min=23 / scenecut=40 / intra_refresh=0 / rc_lookahead=60 / rc=crf / mbtree=1 / crf=18.0 / qcomp=0.70 / qpmin=0 / qpmax=69 / qpstep=4 / vbv_maxrate=40000 / vbv_bufsize=40000 / crf_max=0.0 / nal_hrd=none / ip_ratio=1.40 / aq=1:0.70
Audio
ID : 2
Format : AC-3
Format/Info : Audio Coding 3
Mode extension : CM (complete main)
Codec ID : A_AC3
Duration : 1h 30mn
Bit rate mode : Constant
Bit rate : 640 Kbps
Channel(s) : 6 channels
Channel positions : Front: L C R, Side: L R, LFE
Sampling rate : 48.0 KHz
Bit depth : 16 bits
Compression mode : Lossy
Stream size : 416 MiB (7%)
Language : Russian
Menu
00:00:00.000 : :1
00:13:21.718 : :2
00:34:07.003 : :3
00:53:46.223 : :4
01:12:34.392 : :5

Скриншоты

Господа копипастеры, пожалуйста, уважайте труд рипперов -
не "забывайте" указывать авторство в своих релизах!
Благодарности релизеру (22)

Торрент:

Статус:

Размер:

Зарегистрирован   [ 2012-02-18 00:06 ]

проверено

6.22 GB