Торренты   
 
 


Гадкий я 3D / Despicable Me 3D (Пьер Коффен, Крис Рено) [2010 г., OverUnder]

Гадкий я 3D / Despicable Me 3D
Год выпуска: 2010
Страна: США
Жанр: мультфильм, фэнтези, комедия, криминал, приключения, семейный
Продолжительность: 95 мин. / 01:35
Перевод: Профессиональный (полное дублирование)
Режиссер: Пьер Коффен, Крис Рено
В ролях: Стив Карелл, Джейсон Сигел, Расселл Брэнд, Джули Эндрюс, Уилл Арнетт, Кристен Уиг, Миранда Косгров, Дэна Гайер, Элси Фишер, Пьер Коффен...
Описание: Гадкий снаружи, но добрый внутри Грю намерен, тем не менее, закрепить за собой статус главного архизлодея в мире, для чего он решает выкрасть Луну при помощи созданной им армии миньонов. Дело осложняют конкуренты, вставляющие высокотехнические палки в колеса, и семейные обстоятельства в виде трех сироток, о которых Грю вынужден заботиться.
Формат 3d: OverUnder
Видео: AVC, h264, 1920х1080, 23,976 fps, 20.7 Mbps, High@L5.1
Аудио: Rus, DTS, 6 каналов, 755 Кбит/сек, 48,0 КГц

Скриншоты



MediaInfo

General
Format : Matroska
Format version : Version 2
File size : 14.5 GiB
Duration : 1h 34mn
Overall bit rate : 21.9 Mbps
Writing library : libebml v0.7.8 + libmatroska v0.8.1
Video
ID : 1
Format : AVC
Format/Info : Advanced Video Codec
Format profile : High@L5.1
Format settings, CABAC : Yes
Format settings, ReFrames : 2 frames
Codec ID : V_MPEG4/ISO/AVC
Duration : 1h 34mn
Bit rate : 20.7 Mbps
Width : 1 920 pixels
Height : 1 080 pixels
Display aspect ratio : 16:9
Frame rate : 23.976 fps
Color space : YUV
Chroma subsampling : 4:2:0
Bit depth : 8 bits
Scan type : Progressive
Bits/(Pixel*Frame) : 0.416
Stream size : 13.7 GiB (95%)
Writing library : x264 core
Default : Yes
Forced : No
Color primaries : BT.709-5, BT.1361, IEC 61966-2-4, SMPTE RP177
Transfer characteristics : BT.709-5, BT.1361
Matrix coefficients : BT.709-5, BT.1361, IEC 61966-2-4 709, SMPTE RP177
Audio
ID : 2
Format : DTS
Format/Info : Digital Theater Systems
Codec ID : A_DTS
Duration : 1h 34mn
Bit rate mode : Constant
Bit rate : 755 Kbps
Channel(s) : 6 channels
Channel positions : Front: L C R, Side: L R, LFE
Sampling rate : 48.0 KHz
Bit depth : 24 bits
Compression mode : Lossy
Stream size : 511 MiB (3%)
Language : Russian
Default : Yes
Forced : No
Despicable Me (2010) 3D 1080p BDRip.mkv.torrent
Торрент: Не зарегистрирован

Скачать

73 KB

Добавлен: 2012-02-18 04:17
Скачано: 1387 раз  [ Список скачавших ]
   
Комментарии:





Есть уже http://torrents3d.ru/viewtopic.php?t=2026
К тому же откуда такой завышенный битрейт, без медиаинфо не понятно. Дальше, анаморф для телевизоров, больше половины наших пользователей обладатели LG, а звук DTS и профиль 5.1 для них неприемлим.
 

Для тв LG - все что связано со звуком DTS рекомендую просмотр через (Plex Media Server).
 

да да да, Димитрий, лыжа есть наше усё. а вот насчёт pms, это зло, страшное и враждебное для человека. уж лучше hms, он и понятней, и людьми делан
 

cabas, спасибо!
хотя раздача уже есть, но надеюсь здесь качество повыше будет
 

Я чего-то не понял, торрент скачать нельзя??
 

ANProni
Здесь фаб рип.. качество выше не может быть..
и качать нельзя закрыта раздача.
 

Топик был перенесен из форума Мультфильмы в форум Архив

Zagruzin