Торренты   
 
 


Война Богов: Бессмертные / Immortals [2011 г., BDrip, 1080p Anamorph OverUnder]

Рейтинг 3D:
20 голосов
4.6
Рейтинг фильма:
20 голосов
5.6
 
Вы должны быть авторизированы,
чтобы ставить оценки


Год выпуска: 2011
Страна: США
Выпущено: Relativity Media, Virgin Produced, Mark Canton Productions
Жанр: фэнтези, боевик, драма
Продолжительность: 01:50:26
Перевод: Профессиональный (полное дублирование)
Русские субтитры: нет-Режиссер:
Тарсем Синх / Tarsem Sinh
В ролях:
Генри Кавилл, Стивен Дорфф, Люк Эванс, Изабель Лукас, Келлан Латс, Фрида Пинто, Микки Рурк, Джон Хёрт, Джозеф Морган, Энн Дэй-Джонс-Описание:
Одержимый жаждой власти царь Гиперион хочет уничтожить род людской и низвергнуть богов. С помощью Эпирского Лука, сделанного руками бога войны Ареса, он освобождает Титанов от тысячелетнего заточения в горах Тартара. Боги бессильны противостоять безумному царю. Единственная надежда на спасение - герой Тесей, который вступает в неравную войну с Титанами. Боги Олимпа во главе с самим Зевсом, пророчица Федра и хитрый раб Ставрос помогают герою в смертельной битве с демонами. Тесей должен победить, или боги Олимпа будут низвержены, а Эллада обречена на погибель...- -Качество: BDrip
Контейнер: mkv
Формат 3D: Anamorph OverUnder
Видео кодек: x264
Аудио кодек: AC3
Видео: AVC, h264, 1920x1080, 23.976 кадр/сек, 7,5 Мбит/сек
Аудио №01 Русский; AC3, 6 каналов, 640 Кбит/сек, 48,0 КГц
Аудио №02 English; AC3, 6 каналов, 640 Кбит/сек, 48,0 КГц-

MediaInfo:

Общее
Уникальный идентификатор : 182240747668893607901297882634621653492 (0x891A4A92C9AD2A36ADE27A454AB591F4)
Полное имя: G:\Immortals.3D.2011.BD3DRip.Half.OU.x264.AC3.Rus.Eng.El.mkv
Формат : Matroska
Версия формата : Version 2
Размер файла : 6,34 Гбайт
Продолжительность : 1 ч. 50 м.
Общий поток : 8219 Кбит/сек
Дата кодирования : UTC 2012-02-18 15:19:56
Программа кодирования : mkvmerge v3.4.0 ('Rapunzel') сборка от May 15 2010 09:38:20
Библиотека кодирования : libebml v0.8.0 + libmatroska v0.9.0
Видео
Идентификатор : 1
Формат : AVC
Формат/Информация : Advanced Video Codec
Профиль формата : High@L4.1
Параметр CABAC формата : Да
Параметр ReFrames формата : 4 кадра
Идентификатор кодека : V_MPEG4/ISO/AVC
Продолжительность : 1 ч. 50 м.
Битрейт : 7537 Кбит/сек
Ширина : 1920 пикселей
Высота : 1080 пикселей
Соотношение сторон : 16:9
Частота кадров : 23,976 кадра/сек
Цветовое пространство : YUV
Субдискретизация насыщенности : 4:2:0
Битовая глубина : 8 бит
Тип развёртки : Прогрессивная
Бит/(Пиксели*Кадры) : 0.136
Размер потока : 5,35 Гбайт (82%)
Заголовок : rip by itsamna (aka elephant AnTo}{@)
Библиотека кодирования : x264 core 116 r2074 2641b9e
Настройки программы : cabac=1 / ref=4 / deblock=1:-3:-3 / analyse=0x3:0x133 / me=umh / subme=9 / psy=1 / psy_rd=1.00:0.15 / mixed_ref=1 / me_range=16 / chroma_me=1 / trellis=2 / 8x8dct=1 / cqm=0 / deadzone=21,11 / fast_pskip=1 / chroma_qp_offset=-3 / threads=3 / sliced_threads=0 / nr=0 / decimate=1 / interlaced=0 / bluray_compat=0 / constrained_intra=0 / bframes=6 / b_pyramid=2 / b_adapt=2 / b_bias=0 / direct=3 / weightb=1 / open_gop=0 / weightp=2 / keyint=250 / keyint_min=23 / scenecut=40 / intra_refresh=0 / rc_lookahead=60 / rc=crf / mbtree=1 / crf=18.0 / qcomp=0.60 / qpmin=10 / qpmax=69 / qpstep=4 / vbv_maxrate=50000 / vbv_bufsize=50000 / crf_max=0.0 / nal_hrd=none / ip_ratio=1.40 / aq=1:0.70
Default : Да
Forced : Нет
Аудио #1
Идентификатор : 2
Формат : AC-3
Формат/Информация : Audio Coding 3
Расширение режима : CM (complete main)
Идентификатор кодека : A_AC3
Продолжительность : 1 ч. 50 м.
Вид битрейта : Постоянный
Битрейт : 640 Кбит/сек
Каналы : 6 каналов
Расположение каналов : Front: L C R, Side: L R, LFE
Частота : 48,0 КГц
Битовая глубина : 16 бит
Метод сжатия : С потерями
Размер потока : 506 Мбайт (8%)
Заголовок : Dub
Язык : Russian
Default : Да
Forced : Нет
Аудио #2
Идентификатор : 3
Формат : AC-3
Формат/Информация : Audio Coding 3
Расширение режима : CM (complete main)
Идентификатор кодека : A_AC3
Продолжительность : 1 ч. 50 м.
Вид битрейта : Постоянный
Битрейт : 640 Кбит/сек
Каналы : 6 каналов
Расположение каналов : Front: L C R, Side: L R, LFE
Частота : 48,0 КГц
Битовая глубина : 16 бит
Метод сжатия : С потерями
Размер потока : 506 Мбайт (8%)
Заголовок : Original
Язык : English
Default : Нет
Forced : Нет
Меню
00:00:00.000 : :01
00:03:02.516 : :02
00:06:53.580 : :03
00:11:02.328 : :04
00:15:26.342 : :05
00:19:13.444 : :06
00:23:16.186 : :07
00:26:21.121 : :08
00:30:00.424 : :09
00:33:42.729 : :10
00:37:49.809 : :11
00:42:09.235 : :12
00:45:57.088 : :13
00:53:58.735 : :14
00:57:41.333 : :15
01:01:39.654 : :16
01:04:53.681 : :17
01:09:38.216 : :18
01:16:19.325 : :19
01:23:25.709 : :20
01:27:41.631 : :21
01:31:35.699 : :22
01:38:12.929 : :23
01:41:55.943 : :24
-

Скриншоты

-
Остальные раздачи этого фильма (5)
Благодарности релизеру (20)

Торрент:

Статус:

Размер:

Зарегистрирован   [ 2012-02-18 19:45 ]

проверено

6.34 GB

 
 Мнение о фильме (7)





Прекрасный, как всегда, релиз. Вот только сам фильм (не в обиду автора релиза будет сказано - он-то не при чем!) - редкосный отстой. И по сюжету, и по исполнению, и по 3D. Видя подобные"кино-шедевры" нового времени, понимаешь с грустью, что в обозримом будущем мы не дождемся в 3D чего-нибудь вроде "Гладиатора". Не понимаю этой моды на киносъемку а-ля-мульт и сюжетом а-ля-комикс. Куда ухнули ТААкой бюджет - не понятно. Все плоско, блекло, очень компьютерно. неправдоподобно и до зубной боли глупо. 3D-мультфильмы последней волны и те смотрятся куда красочнее и реалистичнее этой бурды, недостойной жечь пиксели на наших телеках.
 

оффтоп:
на выходных посмотрел этот фильм - 3д есть но особо не впечатлило, но вот что впечатлило не в лучшую сторону - весь фильм ловил себя на мысли что нахожусь в театре. Как то все очень декорации напоминало.
 

Фильм посмотрел 3D есть, но ерундовое. Можно вешать медальку плохого 3D.
 

boss-master
Так иногда такой ход оправдывает сюжет!Далеко ходить не будем а обратимся к отечественной классике-ГАРАЖ!
 

а можно только битву с титанами посмотреть-самое лучшее что есть в этом фильме, к тому же здесь 3д-конвертированное.
 

На общем фоне современного 3D кинематографа фильм выглядит достаточно высоко, причем и по сюжету, и по 3D. Возможно это впечатления во многом из-за финальной битвы.
 

В плюс можно отнести только оригинальную художественную оболочку. Действительно стильно и минималистично, но все остальное...
Диалоги будто бы написаны школьниками. Это не пафосные клише из "300" - это гораздо хуже - эти диалоги просто идиотские. Вприципе, тут все по мелочи изобилует идиотизмом. Враги появляются изниоткуда, как будто спавнятся по скриптам. Герои совершают странные, необъяснимые поступки, чтобы сценарий пошел по нужному пути.
А тот самый главный герой, который должен содержать наибольшую харизму, чтобы просмотр фильма имел хоть какой-то смысл. Кроме того, что у него едет крыша от телочек, он ничем не раскрывается. Зато он постоянно теряет ценные артефакты от малейшего пинка, так что хоть на резинку привязывай к руке, как детям варежки. Попадает в идиотские ситуации. Особенно запомнилась сцена с засадой - не буду пересказывать, кто видел, тот поймет. Похоже на пародию про геройские фильмы - герой бежит со всех ног в засаду, зная о ней, получает пинка и теряет самое ценное.
Даже герой туповатой "Битвы Титанов" в 10 раз харизматичнее и интереснее, при том, что сценарий их персонажей весьма похож. И когда в заключительной сцене главный герой делает спич перед трусоватыми войнами, что так громогласно звучал в трейлере, в фильме это вызывает только лишь ухмылку, потому что главный герой - никто.
3D отключил, смотреть не на что.