Торренты   
 
 


Грибы в 3Д / One Way Trip 3D (Маркус Вельтер / Markus Welter) [2011, BDrip, 1080p, Full OverUnder]

Рейтинг 3D:
22 голосов
6.7
Рейтинг фильма:
21 голосов
5.8
 
Вы должны быть авторизированы,
чтобы ставить оценки


Грибы 3D / One Way Trip 3D

Год выпуска: 2011
Страна: Швейцария, Австрия
Студия: HesseGreutert Film AG, Superfilm
Жанр: ужасы, триллер
Продолжительность: 01:29:25
Перевод: Профессиональный (дублированный)
Русские субтитры: нет
Режиссер на русском: Маркус Вельтер
Режиссер на английском: Markus Welter
В ролях: Сабрина Рейтер, Мелани Винигер, Херберт Лайзер, Мартин Лус, Аарон Хиц, Маттиас Бритшджи, Саймон Кэсер, Изабелль Барт, Гарри Лампль, Таня Рауниг
Описание: В центре событий группа молодых людей отправившихся в лес на поиски галлюциногенных грибов. Добравшись до места, они начинают сбор грибов, а вечером решают немного оттянуться. Веселье заканчивается, когда один из ребят, отлучившийся за пивом, возвращается с разбитым в кровь лицом. Что с ним случилось, он понятия не имеет. Ребята решают срочно уйти из леса, но обнаруживают, что их машина кем-то сломана, а телефоны не работают. Они решают искать помощи на ближайшей ферме, которую они приметили по дороге в лес. Но туда не стоило идти. Неизвестные охотники начинают убивать ребят одного за другим…
На встроенных ТВ-плейерах работать не будет!!!
Качество: BDrip
Контейнер: MKV
Формат 3D: OverUnder / Вертикальная стереопара
Порядок ракурсов: левый ракурс первый
Видео кодек: x264
Аудио кодек: DTS
Видео: AVC / 1920х2080 / 23,976 кадр/сек / 28,6 Мбит/сек
Аудио: Русский / DTS / 48 KHz / 5.1 ch / 1510 Kbps

MediaInfo

General
Complete name : D:\3D Кинофильмы\Грибы (2011).mkv
Format : Matroska
File size : 19.2 GiB
Duration : 1h 29mn
Overall bit rate : 30.7 Mbps
Encoded date : UTC 2012-02-17 19:44:59
Writing application : mkvmerge v3.4.0 ('Rapunzel') сборка от May 15 2010 09:38:20
Writing library : libebml v0.8.0 + libmatroska v0.9.0
Video
ID : 1
Format : AVC
Format/Info : Advanced Video Codec
Format profile : High@L5.0
Format settings, CABAC : Yes
Format settings, ReFrames : 5 frames
Muxing mode : Container profile=Unknown@5.0
Codec ID : V_MPEG4/ISO/AVC
Duration : 1h 29mn
Bit rate : 28.6 Mbps
Width : 1 920 pixels
Height : 2 080 pixels
Display aspect ratio : 0.923
Frame rate : 23.976 fps
Color space : YUV
Chroma subsampling : 4:2:0
Bit depth : 8 bits
Scan type : Progressive
Bits/(Pixel*Frame) : 0.299
Stream size : 17.9 GiB (93%)
Writing library : x264 core 119 r2106 07efeb4
Encoding settings : cabac=1 / ref=5 / deblock=1:-3:-3 / analyse=0x3:0x113 / me=umh / subme=9 / psy=1 / psy_rd=1.00:0.15 / mixed_ref=1 / me_range=16 / chroma_me=1 / trellis=2 / 8x8dct=1 / cqm=0 / deadzone=21,11 / fast_pskip=1 / chroma_qp_offset=-3 / threads=6 / sliced_threads=0 / nr=0 / decimate=1 / interlaced=0 / bluray_compat=0 / constrained_intra=0 / bframes=4 / b_pyramid=2 / b_adapt=2 / b_bias=0 / direct=3 / weightb=1 / open_gop=0 / weightp=2 / keyint=250 / keyint_min=23 / scenecut=40 / intra_refresh=0 / rc_lookahead=40 / rc=crf / mbtree=1 / crf=18.0 / qcomp=0.60 / qpmin=10 / qpmax=69 / qpstep=4 / vbv_maxrate=40000 / vbv_bufsize=40000 / crf_max=0.0 / nal_hrd=none / ip_ratio=1.40 / aq=1:1.00
Audio
ID : 2
Format : DTS
Format/Info : Digital Theater Systems
Codec ID : A_DTS
Duration : 1h 29mn
Bit rate mode : Constant
Bit rate : 1 510 Kbps
Channel(s) : 6 channels
Channel positions : Front: L C R, Side: L R, LFE
Sampling rate : 48.0 KHz
Bit depth : 24 bits
Stream size : 966 MiB (5%)
Language : Russian

Скриншоты

Остальные раздачи этого фильма (2)
Благодарности релизеру (4)

Торрент:

Статус:

Размер:

Зарегистрирован   [ 2012-02-18 21:35 ]

проверено

19.2 GB

 
 Мнение о фильме (18)





в 2д смотрел, буэээ...
 

в 2д смотрел, буэээ...
Да ладно вам - обычный фильм о вредном влиянии распития пива с грибочками (необычными) в незнакомых местах отдыха )) А если ещё смотреть в 3Д после грибочков (обычных) с водочкой - то ваще шедевр.
 

zhuk.m
кому как, я такие "шедевры" не люблю
кстати, посмотреть пытались семьей "смешариков начало", такая бредятина, ужас просто!!!
 

Спасибо, фильм на раз посмотреть, для любителей жанра, но большой плюс, что в 3D.
 

к релизу никаких претензий, все отлично, но фильм - хрень полнейшая.. я даже не понимаю откуда такие высокие для этого фильма оценки 3,83 и 4,4..
 

Фильм конечно смотреть не интересно после Грибов 2007 года с похожим сюжетом, отсюда и оценки...
Между тем 3D вполне неплохое, на твердые 3.5.
 

Спасибо за фильм эффект 3D классный
 

Отличный фильм.
 

какое 3 д это просто глазовертки какие то вы что это смотреть даже не возможно...кто это сделал руки оторвать...
 

Первая часть намного интересней
 

зачем этот фильм вообще снимали. бред.
 

Фильм классный,но не для 3 д
 

Нормально их вштырило. А вообще так атмосферно , когда ночью в лесу в палаточном лагере, хороший эффект присутствия.
 

Средненький фильм. 3Д на ''хорошо''. Вылеты присутствуют.
 

Ерунда, даже не досмотрел
 

Нормальный фильм, хорошо что в 3D, больше жути.
 

Полная ерунда. Не досмотрел.
 

Плохой фильм. На перемотке, и то еле-еле...