Торренты   
 
 


Гробовщик / The Mortician [2011, BDrip, 1080p, Anamorph OverUnder]

Рейтинг 3D:
3 голосов
6.0
Рейтинг фильма:
3 голосов
5.7
 
Вы должны быть авторизированы,
чтобы ставить оценки


ГробовщикThe Mortician
Год выпуска: 2011
Страна: Великобритания (Full Circle Films, Belladonna Productions, Film And Music Entertainment)
Жанр: Триллер
Продолжительность: 01:29:02
Перевод: Профессиональный (многоголосый закадровый)
Режиссер: Гарет Максвелл Робер / Gareth Maxwell Rober
В ролях: Method Man, Дэш Майок, Э.Дж. Бонилла, Джуди Марте, Анджелик Замбрана, Уенделл Пирс, Дэна Фучс, Эдвард Ферлонг, Круз Сантьяго, Вернон Брукс, Дэвид Дженсен, Рендал Ридер, Idella Johnson, Луис Да Силва мл., Энн МакКензи, Джош Гейтс...
Описание: Одинокий и необщительный Гробовщик работает паталогоанатомом в городском морге. Он изо дня в день, сталкиваясь с трупами, с безразличием относится к своей работе. Жизнь его течет монотонно и спокойно. Но с появлением бывшего преступника Ноа, досрочно освобожденного из мест заключения, который пришел работать в морг, жизнь Гробовщика меняется.
А когда он знакомится с маленьким мальчиком Кейном, в его жизни открывается новая страничка. Дело в том, что мать этого мальчугана при невыясненных и странных обстоятельствах была зверски убита. Гробовщик и Кейн поневоле оказываются втянуты в это дело. Начинается опасная борьба с мистическими и пугающими подробностями, не только за свою жизнь, но и жизнь Кейна. Эта борьба с насилием и произволом может грозить Гробовщику и Кейну тюремным заключением не на один год.--За исходник спасибо и gigant33--Проверено на встроенном плейере ТВ Samsung UE-C7000 --Формат 3d: Anamorph OverUnder
Качество: BDrip
Контейнер: MKV
Видео: AVC / 1920х1080p / 23,976 fps / 5783 Kbps
Аудио#1: Русский / AC3 / 48 KHz / 5.1 ch / 640 Kbps
Аудио#2: Английский / AC3 / 48 KHz / 5.1 ch / 640 Kbps

MediaInfo

General
UniqueID : 206471926602568690822772077563827927607 (0x9B550BEEC2448A39A4894EB1F15B3A37)
Complete name : F:\Downloads\TheMortician(3D)2010.halfOU(ash61).mkv
Format : Matroska
File size : 4.48 GiB
Duration : 1h 29mn
Overall bit rate : 7 206 Kbps
Movie name : The Mortician (3D) 2010 (Ash61)
Encoded date : UTC 2012-02-18 15:58:11
Writing application : mkvmerge v3.4.0 ('Rapunzel') сборка от May 15 2010 09:38:20
Writing library : libebml v0.8.0 + libmatroska v0.9.0
Video
ID : 1
Format : AVC
Format/Info : Advanced Video Codec
Format profile : High@L4.1
Format settings, CABAC : Yes
Format settings, ReFrames : 4 frames
Format settings, GOP : N=1
Codec ID : V_MPEG4/ISO/AVC
Duration : 1h 29mn
Bit rate : 5 783 Kbps
Width : 1 920 pixels
Height : 1 080 pixels
Display aspect ratio : 16:9
Frame rate : 23.976 fps
Color space : YUV
Chroma subsampling : 4:2:0
Bit depth : 8 bits
Scan type : Progressive
Bits/(Pixel*Frame) : 0.116
Stream size : 3.60 GiB (80%)
Title : BDrip by Ash61
Writing library : x264 core 119 r2106 07efeb4
Encoding settings : cabac=1 / ref=4 / deblock=1:-3:-3 / analyse=0x3:0x113 / me=umh / subme=9 / psy=1 / psy_rd=1.00:0.15 / mixed_ref=1 / me_range=16 / chroma_me=1 / trellis=1 / 8x8dct=1 / cqm=0 / deadzone=21,11 / fast_pskip=1 / chroma_qp_offset=-3 / threads=3 / sliced_threads=0 / nr=0 / decimate=1 / interlaced=0 / bluray_compat=0 / constrained_intra=0 / bframes=6 / b_pyramid=2 / b_adapt=2 / b_bias=0 / direct=3 / weightb=1 / open_gop=0 / weightp=2 / keyint=250 / keyint_min=23 / scenecut=40 / intra_refresh=0 / rc_lookahead=60 / rc=crf / mbtree=1 / crf=18.0 / qcomp=0.70 / qpmin=0 / qpmax=69 / qpstep=4 / vbv_maxrate=40000 / vbv_bufsize=40000 / crf_max=0.0 / nal_hrd=none / ip_ratio=1.40 / aq=1:0.70
Audio #1
ID : 2
Format : AC-3
Format/Info : Audio Coding 3
Mode extension : CM (complete main)
Codec ID : A_AC3
Duration : 1h 29mn
Bit rate mode : Constant
Bit rate : 640 Kbps
Channel(s) : 6 channels
Channel positions : Front: L C R, Side: L R, LFE
Sampling rate : 48.0 KHz
Bit depth : 16 bits
Compression mode : Lossy
Stream size : 408 MiB (9%)
Language : Russian
Audio #2
ID : 3
Format : AC-3
Format/Info : Audio Coding 3
Mode extension : CM (complete main)
Codec ID : A_AC3
Duration : 1h 29mn
Bit rate mode : Constant
Bit rate : 640 Kbps
Channel(s) : 6 channels
Channel positions : Front: L C R, Side: L R, LFE
Sampling rate : 48.0 KHz
Bit depth : 16 bits
Compression mode : Lossy
Stream size : 408 MiB (9%)
Language : English
Menu
00:00:00.000 : :01
00:07:02.589 : :02
00:15:46.195 : :03
00:22:31.350 : :04
00:28:48.477 : :05
00:38:55.458 : :06
00:43:16.427 : :07
00:53:58.569 : :08
01:04:09.804 : :09
01:11:30.077 : :10
01:17:52.835 : :11
01:22:10.634 : :12

Скриншоты

Господа копипастеры, пожалуйста, уважайте труд рипперов -
не "забывайте" указывать авторство в своих релизах!
Остальные раздачи этого фильма (2)
Благодарности релизеру (5)

Торрент:

Статус:

Размер:

Зарегистрирован   [ 2012-02-18 21:44 ]

проверено

4.48 GB

 
 Мнение о фильме (6)





Спасибо за релиз. Но посмотрел его в 2Д это вынос мозга а не фильм. смысла ноль. а про спец эффекты вообще ничего не скажу так как их просто нет ибо фильм не динамичный.
 

фильм - ниочем, релизеру спасибо за труды
 

СПАСИБО за фильм !!! Объём нормальный.
 

С благодарностью к релизёру за труды, но фильм так и не смог досмотреть до конца, как не заставлял себя, - такое гов...о!!! Ни о чём и не про что. Зачем столько труда вкладывать в какашку?
 

Тугомотный шлак!!!
 

Какой шлак? Отлицный фильм! 3Д лучше чем в аватаре!