Торренты   
 
 


Гробовщик в 3Д / The Mortician 3D (Гарет Максвелл Робер / Gareth Maxwell Rober) [2011, BDrip, 1080p, Full OverUnder]

Рейтинг 3D:
3 голосов
6.0
Рейтинг фильма:
3 голосов
5.7
 
Вы должны быть авторизированы,
чтобы ставить оценки


Гробовщик / The Mortician

Год выпуска: 2011
Страна: Великобритания
Студия: Full Circle Films, Belladonna Productions
Жанр: триллер
Продолжительность: 01:29:02
Перевод: Профессиональный (многоголосый закадровый)
Русские субтитры: нет
Режиссер на русском: Гарет Максвелл Робер
Режиссер на английском: Gareth Maxwell Rober
В ролях: Method Man, Дэш Майок, Э.Дж. Бонилла, Джуди Марте, Анджелик Замбрана, Уенделл Пирс, Дэна Фучс, Эдвард Ферлонг, Круз Сантьяго, Вернон Брукс, Дэвид Дженсен, Рендал Ридер, Idella Johnson, Луис Да Силва мл., Энн МакКензи, Джош Гейтс
Описание: Одинокий и необщительный Гробовщик работает паталогоанатомом в городском морге. Он изо дня в день, сталкиваясь с трупами, с безразличием относится к своей работе. Жизнь его течет монотонно и спокойно. Но с появлением бывшего преступника Ноа, досрочно освобожденного из мест заключения, который пришел работать в морг, жизнь Гробовщика меняется.
А когда он знакомится с маленьким мальчиком Кейном, в его жизни открывается новая страничка. Дело в том, что мать этого мальчугана при невыясненных и странных обстоятельствах была зверски убита. Гробовщик и Кейн поневоле оказываются втянуты в это дело. Начинается опасная борьба с мистическими и пугающими подробностями, не только за свою жизнь, но и жизнь Кейна. Эта борьба с насилием и произволом может грозить Гробовщику и Кейну тюремным заключением не на один год.
На встроенных ТВ-плейерах работать не будет!!!
Качество: BDrip
Контейнер: MKV
Формат 3D: OverUnder / Вертикальная стереопара
Порядок ракурсов: левый ракурс первый
Видео кодек: x264
Аудио кодек: DTS
Видео: AVC / 1920х1632 / 23,976 кадр/сек / 11,7 Мбит/сек
Аудио 1: Русский / DTS / 48 KHz / 5.1 ch / 1510 Kbps
Аудио 2: Английский / DTS / 48 KHz / 5.1 ch / 1510 Kbps

MediaInfo

General
Complete name : D:\3D Кинофильмы\Гробовщик (2011).mkv
Format : Matroska
File size : 9.31 GiB
Duration : 1h 29mn
Overall bit rate : 15.0 Mbps
Encoded date : UTC 2012-02-19 02:45:36
Writing application : mkvmerge v3.4.0 ('Rapunzel') сборка от May 15 2010 09:38:20
Writing library : libebml v0.8.0 + libmatroska v0.9.0
Video
ID : 1
Format : AVC
Format/Info : Advanced Video Codec
Format profile : High@L5.0
Format settings, CABAC : Yes
Format settings, ReFrames : 5 frames
Format settings, GOP : N=1
Muxing mode : Container profile=Unknown@5.0
Codec ID : V_MPEG4/ISO/AVC
Duration : 1h 29mn
Bit rate : 11.7 Mbps
Width : 1 920 pixels
Height : 1 632 pixels
Display aspect ratio : 1.176
Frame rate : 23.976 fps
Color space : YUV
Chroma subsampling : 4:2:0
Bit depth : 8 bits
Scan type : Progressive
Bits/(Pixel*Frame) : 0.155
Stream size : 7.25 GiB (78%)
Writing library : x264 core 119 r2106 07efeb4
Encoding settings : cabac=1 / ref=5 / deblock=1:-3:-3 / analyse=0x3:0x113 / me=umh / subme=9 / psy=1 / psy_rd=1.00:0.15 / mixed_ref=1 / me_range=16 / chroma_me=1 / trellis=2 / 8x8dct=1 / cqm=0 / deadzone=21,11 / fast_pskip=1 / chroma_qp_offset=-3 / threads=6 / sliced_threads=0 / nr=0 / decimate=1 / interlaced=0 / bluray_compat=0 / constrained_intra=0 / bframes=4 / b_pyramid=2 / b_adapt=2 / b_bias=0 / direct=3 / weightb=1 / open_gop=0 / weightp=2 / keyint=250 / keyint_min=23 / scenecut=40 / intra_refresh=0 / rc_lookahead=40 / rc=crf / mbtree=1 / crf=18.0 / qcomp=0.60 / qpmin=10 / qpmax=69 / qpstep=4 / vbv_maxrate=40000 / vbv_bufsize=40000 / crf_max=0.0 / nal_hrd=none / ip_ratio=1.40 / aq=1:1.00
Audio #1
ID : 2
Format : DTS
Format/Info : Digital Theater Systems
Codec ID : A_DTS
Duration : 1h 29mn
Bit rate mode : Constant
Bit rate : 1 510 Kbps
Channel(s) : 6 channels
Channel positions : Front: L C R, Side: L R, LFE
Sampling rate : 48.0 KHz
Bit depth : 16 bits
Stream size : 962 MiB (10%)
Language : Russian
Audio #2
ID : 3
Format : DTS
Format/Info : Digital Theater Systems
Codec ID : A_DTS
Duration : 1h 29mn
Bit rate mode : Constant
Bit rate : 1 510 Kbps
Channel(s) : 6 channels
Channel positions : Front: L C R, Side: L R, LFE
Sampling rate : 48.0 KHz
Bit depth : 16 bits
Stream size : 962 MiB (10%)
Language : English

Скриншоты

Остальные раздачи этого фильма (2)
Благодарности релизеру (1)

Торрент:

Статус:

Размер:

Зарегистрирован   [ 2012-02-19 07:09 ]

проверено

9.31 GB

 
 Мнение о фильме (6)





Спасибо за релиз. Но посмотрел его в 2Д это вынос мозга а не фильм. смысла ноль. а про спец эффекты вообще ничего не скажу так как их просто нет ибо фильм не динамичный.
 

фильм - ниочем, релизеру спасибо за труды
 

СПАСИБО за фильм !!! Объём нормальный.
 

С благодарностью к релизёру за труды, но фильм так и не смог досмотреть до конца, как не заставлял себя, - такое гов...о!!! Ни о чём и не про что. Зачем столько труда вкладывать в какашку?
 

Тугомотный шлак!!!
 

Какой шлак? Отлицный фильм! 3Д лучше чем в аватаре!