Торренты   
 
 

 

Кот в сапогах: Три чертёнка (Бонус) / Puss in Boots: The Three Diablos (Bonus) [2011, BDrip, 1080p, Anamorph OverUnder]

Рейтинг 3D:
19 голосов
8.5
Рейтинг фильма:
19 голосов
8.2
 
Вы должны быть авторизированы,
чтобы ставить оценки


Кот в сапогах: Три чертёнка (Бонус)Puss in Boots: The Three Diablos (Bonus)
Год выпуска: 2011
Страна: США (DreamWorks Animation)
Жанр: Мультфильм, Приключения, Комедия, Семейный, Короткометражка
Продолжительность: 00:13:03
Перевод: Дубляж + 4 закадровых (многоголосые и одноголосые)
Русские субтитры: есть
Режиссер: Раман Хюи / Raman Hui
По-английски роли озвучивали:
Кот в сапогах - Antonio Banderas
Гонзало; Сэр Тимотео Монтенегро Третий - Miles Christopher Bakshi
Жемчужина - Nina Zoe Bakshi
Принцесса Алессандра Беллягамба - Charlotte Newhouse
Шептун - Guillaume Aretos
Описание: Кот в сапогах отправляется на поиск рубина, украденного из короны принцессы пресловутым французским вором Шептуном. Его сопровождают три маленьких котенка, три Дьяволенка. Кот должен приручить их, чтобы не поставить под угрозу миссию.
Доп. информация:
  • Перевод/озвучивание cтудии "Омикрон" (5 актеров) осуществлен ресурсом HDclub. Меценаты: Domovenok, ADalagor, dotCom, dimgord, Baron0580, Noks.
  • Звуковая дорожка "SkyeFilmTV". Перевод - JonEA. Редактор - `+1_. Озвучка - JonEA, `+1_, Deman, kis-natella, SerGoLeOne.
  • Перевод Ю.Сербина осуществлен совместно ресурсами HDclub и E180. Меценаты: safreks, пуля, Ramis, rammzez, Slimka, dir, Bilko, oleg-k, multmir, vik19662007, carnivale, anton966.
  • Перевод Доцента выполнен в рамках RG Мультфильмы rutracker.org.
  • Русские субтитры набиты по английским таймингам по переводу Доцента.
  • Дорожки №2-5 получены путем наложения чистого голоса на центр декодированного Dolby TrueHD.-- Проверено на встроенном плейере ТВ Samsung UE-C7000--Формат 3d: Anamorph OverUnder
    Качество: BDrip
    Контейнер: MKV
    Видео: AVC / 1920х1080p / 23,976 fps / 9140 Kbps
    Аудио#1: Русский / AC3 / 48 KHz / 5.1 ch / 448 Kbps (Дубляж - Лицензия)
    Аудио#2: Русский / AC3 / 48 KHz / 5.1 ch / 448 Kbps (MVO - Омикрон)
    Аудио#3: Русский / AC3 / 48 KHz / 5.1 ch / 448 Kbps (MVO - SkyeFilmTV)
    Аудио#4: Русский / AC3 / 48 KHz / 5.1 ch / 448 Kbps (AVO - Ю.Сербин)
    Аудио#5: Русский / AC3 / 48 KHz / 5.1 ch / 448 Kbps (AVO - Доцент / РГ Мультфильмы rutracker.org)
    Аудио#6: Английский / AC3 / 48 KHz / 5.1 ch / 640 Kbps
    Субтитры: Вшитые softsub srt полные русские и английские

    MediaInfo

    General
    UniqueID : 176433732294052227755789607081841915713 (0x84BBE69C4DDB05BF935AB0B0511DF741)
    Complete name : F:\Downloads\PussInBoots.TheThreeDiablos(3D)2011.halfOU.Lic(ash61).mkv
    Format : Matroska
    File size : 1.12 GiB
    Duration : 13mn 5s
    Overall bit rate : 12.3 Mbps
    Movie name : Puss In Boots: The Three Diablos (bonus)(3D) 2011 (Ash61)
    Encoded date : UTC 2012-03-13 11:44:03
    Writing application : mkvmerge v3.4.0 ('Rapunzel') сборка от May 15 2010 09:38:20
    Writing library : libebml v0.8.0 + libmatroska v0.9.0
    Video
    ID : 1
    Format : AVC
    Format/Info : Advanced Video Codec
    Format profile : High@L4.1
    Format settings, CABAC : Yes
    Format settings, ReFrames : 4 frames
    Format settings, GOP : M=1, N=16
    Codec ID : V_MPEG4/ISO/AVC
    Duration : 13mn 5s
    Bit rate : 9 140 Kbps
    Width : 1 920 pixels
    Height : 1 080 pixels
    Display aspect ratio : 16:9
    Frame rate : 23.976 fps
    Color space : YUV
    Chroma subsampling : 4:2:0
    Bit depth : 8 bits
    Scan type : Progressive
    Bits/(Pixel*Frame) : 0.184
    Stream size : 856 MiB (75%)
    Title : BDrip by Ash61
    Writing library : x264 core 119 r2106 07efeb4
    Encoding settings : cabac=1 / ref=4 / deblock=1:-3:-3 / analyse=0x3:0x113 / me=umh / subme=9 / psy=1 / psy_rd=1.00:0.15 / mixed_ref=1 / me_range=16 / chroma_me=1 / trellis=2 / 8x8dct=1 / cqm=0 / deadzone=21,11 / fast_pskip=1 / chroma_qp_offset=-3 / threads=3 / sliced_threads=0 / nr=0 / decimate=1 / interlaced=0 / bluray_compat=0 / constrained_intra=0 / bframes=6 / b_pyramid=2 / b_adapt=2 / b_bias=0 / direct=3 / weightb=1 / open_gop=0 / weightp=2 / keyint=250 / keyint_min=23 / scenecut=40 / intra_refresh=0 / rc_lookahead=60 / rc=crf / mbtree=1 / crf=17.0 / qcomp=0.70 / qpmin=0 / qpmax=69 / qpstep=4 / vbv_maxrate=40000 / vbv_bufsize=40000 / crf_max=0.0 / nal_hrd=none / ip_ratio=1.40 / aq=1:0.70
    Audio #1
    ID : 2
    Format : AC-3
    Format/Info : Audio Coding 3
    Mode extension : CM (complete main)
    Codec ID : A_AC3
    Duration : 13mn 5s
    Bit rate mode : Constant
    Bit rate : 448 Kbps
    Channel(s) : 6 channels
    Channel positions : Front: L C R, Side: L R, LFE
    Sampling rate : 48.0 KHz
    Bit depth : 16 bits
    Compression mode : Lossy
    Stream size : 42.0 MiB (4%)
    Title : Дубляж (Лицензия)
    Language : Russian
    Audio #2
    ID : 3
    Format : AC-3
    Format/Info : Audio Coding 3
    Mode extension : CM (complete main)
    Codec ID : A_AC3
    Duration : 13mn 5s
    Bit rate mode : Constant
    Bit rate : 448 Kbps
    Channel(s) : 6 channels
    Channel positions : Front: L C R, Side: L R, LFE
    Sampling rate : 48.0 KHz
    Bit depth : 16 bits
    Compression mode : Lossy
    Stream size : 42.0 MiB (4%)
    Title : MVO - Омикрон
    Language : Russian
    Audio #3
    ID : 4
    Format : AC-3
    Format/Info : Audio Coding 3
    Mode extension : CM (complete main)
    Codec ID : A_AC3
    Duration : 13mn 5s
    Bit rate mode : Constant
    Bit rate : 448 Kbps
    Channel(s) : 6 channels
    Channel positions : Front: L C R, Side: L R, LFE
    Sampling rate : 48.0 KHz
    Bit depth : 16 bits
    Compression mode : Lossy
    Stream size : 42.0 MiB (4%)
    Title : MVO - SkyeFilmTV
    Language : Russian
    Audio #4
    ID : 5
    Format : AC-3
    Format/Info : Audio Coding 3
    Mode extension : CM (complete main)
    Codec ID : A_AC3
    Duration : 13mn 5s
    Bit rate mode : Constant
    Bit rate : 448 Kbps
    Channel(s) : 6 channels
    Channel positions : Front: L C R, Side: L R, LFE
    Sampling rate : 48.0 KHz
    Bit depth : 16 bits
    Compression mode : Lossy
    Stream size : 42.0 MiB (4%)
    Title : AVO - Ю.Сербин
    Language : Russian
    Audio #5
    ID : 6
    Format : AC-3
    Format/Info : Audio Coding 3
    Mode extension : CM (complete main)
    Codec ID : A_AC3
    Duration : 13mn 5s
    Bit rate mode : Constant
    Bit rate : 448 Kbps
    Channel(s) : 6 channels
    Channel positions : Front: L C R, Side: L R, LFE
    Sampling rate : 48.0 KHz
    Bit depth : 16 bits
    Compression mode : Lossy
    Stream size : 42.0 MiB (4%)
    Title : AVO - Доцент / РГ Мультфильмы rutracker.org
    Language : Russian
    Audio #6
    ID : 7
    Format : AC-3
    Format/Info : Audio Coding 3
    Mode extension : CM (complete main)
    Codec ID : A_AC3
    Duration : 13mn 5s
    Bit rate mode : Constant
    Bit rate : 640 Kbps
    Channel(s) : 6 channels
    Channel positions : Front: L C R, Side: L R, LFE
    Sampling rate : 48.0 KHz
    Bit depth : 16 bits
    Compression mode : Lossy
    Stream size : 59.9 MiB (5%)
    Language : English
    Text #1
    ID : 8
    Format : UTF-8
    Codec ID : S_TEXT/UTF8
    Codec ID/Info : UTF-8 Plain Text
    Language : Russian
    Text #2
    ID : 9
    Format : UTF-8
    Codec ID : S_TEXT/UTF8
    Codec ID/Info : UTF-8 Plain Text
    Language : English

    Скриншоты

    Господа копипастеры, пожалуйста, уважайте труд рипперов -
    не "забывайте" указывать авторство в своих релизах!
    --13.03.2012 - Релиз обновлён - добавлен русский дубляж (лицензия).
    Перекачайте, пожалуйста, торрент-файл.
    Благодарности релизеру (19)

    Торрент:

    Статус:

    Размер:

    Зарегистрирован   [ 2012-03-13 16:17 ]

    проверено

    1.12 GB

     
  •  Мнение о фильме (4)





    Хорошая короткометражка спасибо
     

    смотрится на одном дыхании ,но только вошол во вкус ,а мульт уже закончися ,на то и короткометражка 3D очень хорошее
     

    Все-таки взгляд кошачий - магический, на чем и ведутся все негодяи.
    Ы
     

    спасибо за мультик!!! очень КЛАССНЫЙ !!!