Торренты   
 
 

 

Монстр в Париже / Un monstre a Paris / A Monster in Paris (Бибо Бержерон / Bibo Bergeron) [2011 г., 1080p, Anamorph OverUnder]

Рейтинг 3D:
3 голосов
7.7
Рейтинг фильма:
3 голосов
8.7
 
Вы должны быть авторизированы,
чтобы ставить оценки


Монстр в Париже / Un monstre a Paris
A Monster in Paris

Год выпуска: 2011
Страна: Франция
Жанр: мультфильм, фэнтези, комедия, приключения, музыка
Продолжительность: 01:29:59
Перевод: Профессиональный (полное дублирование)--Режиссер: Бибо Бержерон / Bibo Bergeron--В ролях: Ванесса Паради (Lucille, озвучка), Матье Шедид (Francoeur, озвучка), Гад Эльмалех (Raoul, озвучка), Франсуа Клюзе (Le préfet Maynott, озвучка), Людивин Санье (Maud, озвучка), Жюли Ферье (Madame Carlotta, озвучка), Бруно Саломон (Albert, озвучка), Себастьян Дежу (Emile, озвучка), Филип Петью (озвучка), Боб Бэлабан (Pâté, озвучка, английская версия), Адам Голдберг (Raoul, озвучка, английская версия), Мэттью Геци (Albert, озвучка, английская версия)--Описание: Париж. 1910 год. Ужасный монстр, напоминающий гигантское насекомое, нагоняет страх на всю Францию. Застенчивый киномеханик и неутомимый изобретатель начинают охоту на него. В этой погоне они знакомятся со звездой кабаре, сумасшедшим ученым и его умной обезьянкой и, наконец, самим монстром, который оказывается совсем не страшным. Теперь безобидное, как блоха, чудовище ищет у своих новых друзей защиты от вредного начальника городской полиции.--Формат 3d: Anamorph OverUnder (левый ракурс верхний)
Качество: BDrip
Контейнер: MKV
Видео: AVC / 1920х1080p / 23,976 fps / 5 839 Kbps
Аудио#1: Русский / AC3 / 48 KHz / 5.1 ch / 640 Kbps
Аудио#2: Французский / AC3 / 48 KHz / 5.1 ch / 640 Kbps
Аудио#3: Английский / AC3 / 48 KHz / 5.1 ch / 640 Kbps--

MediaInfo:

Код:
General
Unique ID                        : 209896512453823526477636101307225962661 (0x9DE8990D12A9F2558A0A6B5A3B7178A5)
Complete name                    : L:\_3D\3D-Multiki\Monster_in_Paris.3DBDrip.HalfOU.mkv
Format                           : Matroska
File size                        : 4.98 GiB
Duration                         : 1h 29mn
Overall bit rate                 : 7 917 Kbps
Encoded date                     : UTC 2012-02-20 13:01:55
Writing application              : mkvmerge v4.0.0 ('The Stars were mine') сборка от Jun  6 2010 16:18:42
Writing library                  : libebml v1.0.0 + libmatroska v1.0.0
Video
ID                               : 1
Format                           : AVC
Format/Info                      : Advanced Video Codec
Format profile                   : High@L4.1
Format settings, CABAC           : Yes
Format settings, ReFrames        : 4 frames
Codec ID                         : V_MPEG4/ISO/AVC
Duration                         : 1h 29mn
Bit rate                         : 5 839 Kbps
Width                            : 1 920 pixels
Height                           : 1 080 pixels
Display aspect ratio             : 16:9
Frame rate                       : 23.976 fps
Color space                      : YUV
Chroma subsampling               : 4:2:0
Bit depth                        : 8 bits
Scan type                        : Progressive
Bits/(Pixel*Frame)               : 0.117
Stream size                      : 3.67 GiB (74%)
Writing library                  : x264 core 116 r2074 2641b9e
Encoding settings                : cabac=1 / ref=4 / deblock=1:-3:-3 / analyse=0x3:0x113 / me=umh / subme=9 / psy=1 / psy_rd=1.00:0.15 / mixed_ref=1 / me_range=16 / chroma_me=1 / trellis=2 / 8x8dct=1 / cqm=0 / deadzone=21,11 / fast_pskip=1 / chroma_qp_offset=-3 / threads=6 / sliced_threads=0 / nr=0 / decimate=1 / interlaced=0 / bluray_compat=0 / constrained_intra=0 / bframes=6 / b_pyramid=2 / b_adapt=2 / b_bias=0 / direct=3 / weightb=1 / open_gop=0 / weightp=2 / keyint=250 / keyint_min=23 / scenecut=40 / intra_refresh=0 / rc_lookahead=60 / rc=crf / mbtree=1 / crf=16.5 / qcomp=0.60 / qpmin=0 / qpmax=69 / qpstep=4 / vbv_maxrate=40000 / vbv_bufsize=40000 / crf_max=0.0 / nal_hrd=none / ip_ratio=1.40 / aq=1:0.70
Language                         : French
Audio #1
ID                               : 2
Format                           : AC-3
Format/Info                      : Audio Coding 3
Mode extension                   : CM (complete main)
Codec ID                         : A_AC3
Duration                         : 1h 29mn
Bit rate mode                    : Constant
Bit rate                         : 640 Kbps
Channel(s)                       : 6 channels
Channel positions                : Front: L C R, Side: L R, LFE
Sampling rate                    : 48.0 KHz
Bit depth                        : 16 bits
Compression mode                 : Lossy
Stream size                      : 412 MiB (8%)
Language                         : Russian
Audio #2
ID                               : 3
Format                           : AC-3
Format/Info                      : Audio Coding 3
Mode extension                   : CM (complete main)
Codec ID                         : A_AC3
Duration                         : 1h 29mn
Bit rate mode                    : Constant
Bit rate                         : 640 Kbps
Channel(s)                       : 6 channels
Channel positions                : Front: L C R, Side: L R, LFE
Sampling rate                    : 48.0 KHz
Bit depth                        : 16 bits
Compression mode                 : Lossy
Stream size                      : 412 MiB (8%)
Language                         : French
Audio #3
ID                               : 4
Format                           : AC-3
Format/Info                      : Audio Coding 3
Mode extension                   : CM (complete main)
Codec ID                         : A_AC3
Duration                         : 1h 29mn
Bit rate mode                    : Constant
Bit rate                         : 640 Kbps
Channel(s)                       : 6 channels
Channel positions                : Front: L C R, Side: L R, LFE
Sampling rate                    : 48.0 KHz
Bit depth                        : 16 bits
Compression mode                 : Lossy
Stream size                      : 412 MiB (8%)
Language                         : English

Скриншоты

Благодарности релизеру (11)

Торрент:

Статус:

Размер:

Зарегистрирован   [ 2012-02-20 17:39 ]

проверено

4.98 GB