Торренты   
 
 

 

Кот в сапогах: Три чертёнка (Бонус) / Puss in Boots: The Three Diablos (Bonus) [2011 г.,BDrip, 1080p, Full OverUnder]

Рейтинг 3D:
1 голосов
8.0
Рейтинг фильма:
1 голосов
8.0
 
Вы должны быть авторизированы,
чтобы ставить оценки


Кот в сапогах: Три чертёнка (Бонус)Puss in Boots: The Three Diablos (Bonus)
Год выпуска: 2011
Страна: США (DreamWorks Animation)
Жанр: Мультфильм, Приключения, Комедия, Семейный, Короткометражка
Продолжительность: 0:13:04
Перевод: Одноголосый закадровый (центральный канал)--Режиссер: Raman Hui--Роли озвучивали:
Кот в сапогах - Antonio Banderas
Гонзало; Сэр Тимотео Монтенегро Третий - Miles Christopher Bakshi
Жемчужина - Nina Zoe Bakshi
Принцесса Алессандра Беллягамба - Charlotte Newhouse
Шёпот - Guillaume Aretos--Описание: Бонус к мульту "Кот в сапогах".--Формат 3d: OverUnder (левый ракурс верхний)
Качество: BDrip
Контейнер: MKV
Видео: AVC / 1920х2160p / 23,976 fps / 13.3 Mbps
Аудио#1: Русский / AC3 / 48 KHz / 5.1 ch / 640 Kbps
Аудио#2: Английский / AC3 / 48 KHz / 5.1 ch / 640 Kbps

MediaInfo

Код:
General
Unique ID                        : 183819786250771839451891117044530959077 (0x8A4A672FAB48108AA9501E04831C52E5)
Complete name                    : L:\_3D\3D-Multiki\PussInBoots.TheThreeDiablos.3DBD.mkv
Format                           : Matroska
File size                        : 1.36 GiB
Duration                         : 13mn 4s
Overall bit rate                 : 14.8 Mbps
Encoded date                     : UTC 2012-02-21 04:15:59
Writing application              : mkvmerge v4.0.0 ('The Stars were mine') сборка от Jun  6 2010 16:18:42
Writing library                  : libebml v1.0.0 + libmatroska v1.0.0
Video
ID                               : 1
Format                           : AVC
Format/Info                      : Advanced Video Codec
Format profile                   : High@L5.0
Format settings, CABAC           : Yes
Format settings, ReFrames        : 5 frames
Codec ID                         : V_MPEG4/ISO/AVC
Duration                         : 13mn 4s
Bit rate                         : 13.3 Mbps
Width                            : 1 920 pixels
Height                           : 2 160 pixels
Display aspect ratio             : 0.889
Frame rate                       : 23.976 fps
Color space                      : YUV
Chroma subsampling               : 4:2:0
Bit depth                        : 8 bits
Scan type                        : Progressive
Bits/(Pixel*Frame)               : 0.133
Stream size                      : 1.21 GiB (89%)
Writing library                  : x264 core 116 r2074 2641b9e
Encoding settings                : cabac=1 / ref=5 / deblock=1:-3:-3 / analyse=0x3:0x113 / me=umh / subme=9 / psy=1 / psy_rd=1.00:0.15 / mixed_ref=1 / me_range=16 / chroma_me=1 / trellis=2 / 8x8dct=1 / cqm=0 / deadzone=21,11 / fast_pskip=1 / chroma_qp_offset=-3 / threads=6 / sliced_threads=0 / nr=0 / decimate=1 / interlaced=0 / bluray_compat=0 / constrained_intra=0 / bframes=6 / b_pyramid=2 / b_adapt=2 / b_bias=0 / direct=3 / weightb=1 / open_gop=0 / weightp=2 / keyint=250 / keyint_min=23 / scenecut=40 / intra_refresh=0 / rc_lookahead=60 / rc=crf / mbtree=1 / crf=18.0 / qcomp=0.60 / qpmin=0 / qpmax=69 / qpstep=4 / vbv_maxrate=50000 / vbv_bufsize=50000 / crf_max=0.0 / nal_hrd=none / ip_ratio=1.40 / aq=1:0.70
Language                         : English
Audio #1
ID                               : 2
Format                           : AC-3
Format/Info                      : Audio Coding 3
Mode extension                   : CM (complete main)
Codec ID                         : A_AC3
Duration                         : 13mn 4s
Bit rate mode                    : Constant
Bit rate                         : 640 Kbps
Channel(s)                       : 6 channels
Channel positions                : Front: L C R, Side: L R, LFE
Sampling rate                    : 48.0 KHz
Bit depth                        : 16 bits
Compression mode                 : Lossy
Stream size                      : 59.9 MiB (4%)
Language                         : Russian
Audio #2
ID                               : 3
Format                           : AC-3
Format/Info                      : Audio Coding 3
Mode extension                   : CM (complete main)
Codec ID                         : A_AC3
Duration                         : 13mn 4s
Bit rate mode                    : Constant
Bit rate                         : 640 Kbps
Channel(s)                       : 6 channels
Channel positions                : Front: L C R, Side: L R, LFE
Sampling rate                    : 48.0 KHz
Bit depth                        : 16 bits
Compression mode                 : Lossy
Stream size                      : 59.9 MiB (4%)
Language                         : English

Скриншоты



Благодарности релизеру (1)

Торрент:

Статус:

Размер:

Зарегистрирован   [ 2012-02-21 09:13 ]

проверено

1.36 GB