Торренты   
 
 


Война Богов: Бессмертные в 3Д / Immortals 3D (Тарсем Синх / Tarsem Sinh) [2011, BDrip, 1080p, Full OverUnder]

Рейтинг 3D:
20 голосов
4.6
Рейтинг фильма:
20 голосов
5.6
 
Вы должны быть авторизированы,
чтобы ставить оценки


Война Богов: Бессмертные / Immortals

Год выпуска: 2011
Страна: США
Студия: Relativity Media, Virgin Produced
Жанр: фэнтези, боевик, драма
Продолжительность: 01:50:26
Перевод: Профессиональный (дублированный)
Русские субтитры: нет
Режиссер на русском: Тарсем Синх
Режиссер на английском: Tarsem Sinh
В ролях: Генри Кавилл, Стивен Дорфф, Люк Эванс, Изабель Лукас, Келлан Латс, Фрида Пинто, Микки Рурк, Джон Хёрт, Джозеф Морган, Энн Дэй-Джонс
Роли озвучивали: Андрей Федосов, Денис Беспалый, Александр Дасевич, Ирина Киреева, Александр Головчанский
Описание: Одержимый жаждой власти царь Гиперион хочет уничтожить род людской и низвергнуть богов. С помощью Эпирского Лука, сделанного руками бога войны Ареса, он освобождает Титанов от тысячелетнего заточения в горах Тартара. Боги бессильны противостоять безумному царю. Единственная надежда на спасение - герой Тесей, который вступает в неравную войну с Титанами. Боги Олимпа во главе с самим Зевсом, пророчица Федра и хитрый раб Ставрос помогают герою в смертельной битве с демонами. Тесей должен победить, или боги Олимпа будут низвержены, а Эллада обречена на погибель...
На встроенных ТВ-плейерах работать не будет!!!
Качество: BDrip
Контейнер: MKV
Формат 3D: OverUnder / Вертикальная стереопара
Порядок ракурсов: левый ракурс первый
Видео кодек: x264
Аудио кодек: DTS
Видео: AVC / 1920х2160 / 23,976 кадр/сек / 20,6 Мбит/сек
Аудио 1: Русский / DTS / 48 KHz / 5.1 ch / 1510 Kbps
Аудио 2: Английский / DTS / 48 KHz / 5.1 ch / 1152 Kbps

MediaInfo

General
Complete name : D:\3D Кинофильмы\Война Богов Бессмертные (2011).mkv
Format : Matroska
File size : 18.3 GiB
Duration : 1h 50mn
Overall bit rate : 23.8 Mbps
Encoded date : UTC 2012-02-21 18:41:58
Writing application : mkvmerge v3.4.0 ('Rapunzel') сборка от May 15 2010 09:38:20
Writing library : libebml v0.8.0 + libmatroska v0.9.0
Video
ID : 1
Format : AVC
Format/Info : Advanced Video Codec
Format profile : High@L5.0
Format settings, CABAC : Yes
Format settings, ReFrames : 5 frames
Muxing mode : Container profile=Unknown@5.0
Codec ID : V_MPEG4/ISO/AVC
Duration : 1h 50mn
Bit rate : 20.6 Mbps
Width : 1 920 pixels
Height : 2 160 pixels
Display aspect ratio : 0.889
Frame rate : 23.976 fps
Color space : YUV
Chroma subsampling : 4:2:0
Bit depth : 8 bits
Scan type : Progressive
Bits/(Pixel*Frame) : 0.207
Stream size : 15.9 GiB (87%)
Writing library : x264 core 119 r2106 07efeb4
Encoding settings : cabac=1 / ref=5 / deblock=1:-3:-3 / analyse=0x3:0x113 / me=umh / subme=9 / psy=1 / psy_rd=1.00:0.15 / mixed_ref=1 / me_range=16 / chroma_me=1 / trellis=2 / 8x8dct=1 / cqm=0 / deadzone=21,11 / fast_pskip=1 / chroma_qp_offset=-3 / threads=6 / sliced_threads=0 / nr=0 / decimate=1 / interlaced=0 / bluray_compat=0 / constrained_intra=0 / bframes=4 / b_pyramid=2 / b_adapt=2 / b_bias=0 / direct=3 / weightb=1 / open_gop=0 / weightp=2 / keyint=250 / keyint_min=23 / scenecut=40 / intra_refresh=0 / rc_lookahead=40 / rc=crf / mbtree=1 / crf=18.0 / qcomp=0.60 / qpmin=10 / qpmax=69 / qpstep=4 / vbv_maxrate=40000 / vbv_bufsize=40000 / crf_max=0.0 / nal_hrd=none / ip_ratio=1.40 / aq=1:1.00
Audio #1
ID : 2
Format : DTS
Format/Info : Digital Theater Systems
Codec ID : A_DTS
Duration : 1h 50mn
Bit rate mode : Constant
Bit rate : 1 510 Kbps
Channel(s) : 6 channels
Channel positions : Front: L C R, Side: L R, LFE
Sampling rate : 48.0 KHz
Bit depth : 16 bits
Stream size : 1.16 GiB (6%)
Language : Russian
Audio #2
ID : 3
Format : DTS
Format/Info : Digital Theater Systems
Codec ID : A_DTS
Duration : 1h 50mn
Bit rate mode : Constant
Bit rate : 1 152 Kbps
Channel(s) : 6 channels
Channel positions : Front: L C R, Side: L R, LFE
Sampling rate : 48.0 KHz
Bit depth : 24 bits
Stream size : 910 MiB (5%)
Language : English

Скриншоты

Остальные раздачи этого фильма (5)
Благодарности релизеру (0)

Торрент:

Статус:

Размер:

Зарегистрирован   [ 2012-02-23 16:01 ]

проверено

18.33 GB

 
 Мнение о фильме (7)





Прекрасный, как всегда, релиз. Вот только сам фильм (не в обиду автора релиза будет сказано - он-то не при чем!) - редкосный отстой. И по сюжету, и по исполнению, и по 3D. Видя подобные"кино-шедевры" нового времени, понимаешь с грустью, что в обозримом будущем мы не дождемся в 3D чего-нибудь вроде "Гладиатора". Не понимаю этой моды на киносъемку а-ля-мульт и сюжетом а-ля-комикс. Куда ухнули ТААкой бюджет - не понятно. Все плоско, блекло, очень компьютерно. неправдоподобно и до зубной боли глупо. 3D-мультфильмы последней волны и те смотрятся куда красочнее и реалистичнее этой бурды, недостойной жечь пиксели на наших телеках.
 

оффтоп:
на выходных посмотрел этот фильм - 3д есть но особо не впечатлило, но вот что впечатлило не в лучшую сторону - весь фильм ловил себя на мысли что нахожусь в театре. Как то все очень декорации напоминало.
 

Фильм посмотрел 3D есть, но ерундовое. Можно вешать медальку плохого 3D.
 

boss-master
Так иногда такой ход оправдывает сюжет!Далеко ходить не будем а обратимся к отечественной классике-ГАРАЖ!
 

а можно только битву с титанами посмотреть-самое лучшее что есть в этом фильме, к тому же здесь 3д-конвертированное.
 

На общем фоне современного 3D кинематографа фильм выглядит достаточно высоко, причем и по сюжету, и по 3D. Возможно это впечатления во многом из-за финальной битвы.
 

В плюс можно отнести только оригинальную художественную оболочку. Действительно стильно и минималистично, но все остальное...
Диалоги будто бы написаны школьниками. Это не пафосные клише из "300" - это гораздо хуже - эти диалоги просто идиотские. Вприципе, тут все по мелочи изобилует идиотизмом. Враги появляются изниоткуда, как будто спавнятся по скриптам. Герои совершают странные, необъяснимые поступки, чтобы сценарий пошел по нужному пути.
А тот самый главный герой, который должен содержать наибольшую харизму, чтобы просмотр фильма имел хоть какой-то смысл. Кроме того, что у него едет крыша от телочек, он ничем не раскрывается. Зато он постоянно теряет ценные артефакты от малейшего пинка, так что хоть на резинку привязывай к руке, как детям варежки. Попадает в идиотские ситуации. Особенно запомнилась сцена с засадой - не буду пересказывать, кто видел, тот поймет. Похоже на пародию про геройские фильмы - герой бежит со всех ног в засаду, зная о ней, получает пинка и теряет самое ценное.
Даже герой туповатой "Битвы Титанов" в 10 раз харизматичнее и интереснее, при том, что сценарий их персонажей весьма похож. И когда в заключительной сцене главный герой делает спич перед трусоватыми войнами, что так громогласно звучал в трейлере, в фильме это вызывает только лишь ухмылку, потому что главный герой - никто.
3D отключил, смотреть не на что.