Торренты   
 
 


Монстр в Париже / Un monstre a Paris / A Monster in Paris (Бибо Бержерон) [2011 г., BDRip 1080p, Full OverUnder]

Рейтинг 3D:
Пока никто не голосовал
Рейтинг фильма:
Пока никто не голосовал
 
Вы должны быть авторизированы,
чтобы ставить оценки


Монстр в Париже
Unnstre a Paris / A Monster in Paris-- 2011
Франция
семейный, мультфильм
Дублированный
Бибо Бержерон
01:35:48 --

Ванесса Паради , Матье Шедид , Гад Эльмалех , Франсуа Клюзе , Людивин Санье , Жюли Ферье , Бруно Саломон , Себастьян Дежу , Филип Петью
--

Париж. 1910 год. Ужасный монстр, напоминающий гигантское насекомое, нагоняет страх на всю Францию. Застенчивый киномеханик и неутомимый изобретатель начинают охоту на него. В этой погоне они знакомятся со звездой кабаре, сумасшедшим ученым и его умной обезьянкой и, наконец, самим монстром, который оказывается совсем не страшным. Теперь безобидное, как блоха, чудовище ищет у своих новых друзей защиты от вредного начальника городской полиции.
-- OverUnder
AVC, h264, 1920х2096 , 23,976 кадр/сек, 8957 Кбит/сек
Rus, DTS, 6 каналов, 1561 Kbps / 1510 Kbps, 48,0 КГц
Fre, DTS, 6 каналов, 2047 Kbps / 1510 Kbps, 48,0 КГц
Eng, DTS, 6 каналов, 755 Kbps, 48,0 КГц --

Тык



Тык

Код:
General
Format                         : Matroska
Format version                 : Version 2
File size                      : 8.54 GiB
Duration                       : 1h 29mn
Overall bit rate mode          : Variable
Overall bit rate               : 13.6 Mbps
Encoded date                   : UTC 2012-02-24 09:17:00
Writing application            : mkvmerge v3.4.0 ('Rapunzel') сборка от May 15 2010 09:38:20
Writing library                : libebml v0.8.0 + libmatroska v0.9.0
Video
ID                             : 1
Format                         : AVC
Format/Info                    : Advanced Video Codec
Format profile                 : High@L5.0
Format settings, CABAC         : Yes
Format settings, ReFrames      : 4 frames
Codec ID                       : V_MPEG4/ISO/AVC
Duration                       : 1h 29mn
Bit rate                       : 8 957 Kbps
Width                          : 1 920 pixels
Height                         : 2 096 pixels
Display aspect ratio           : 0.916
Frame rate                     : 23.976 fps
Color space                    : YUV
Chroma subsampling             : 4:2:0
Bit depth                      : 8 bits
Scan type                      : Progressive
Bits/(Pixel*Frame)             : 0.093
Stream size                    : 5.63 GiB (66%)
Writing library                : x264 core 120 r2145 748fe16
Encoding settings              : cabac=1 / ref=4 / deblock=1:-3:-3 / analyse=0x3:0x113 / me=umh / subme=10 / psy=1 / psy_rd=1.00:0.00 / mixed_ref=1 / me_range=16 / chroma_me=1 / trellis=2 / 8x8dct=1 / cqm=0 / deadzone=21,11 / fast_pskip=1 / chroma_qp_offset=-5 / threads=9 / sliced_threads=0 / nr=0 / decimate=1 / interlaced=0 / bluray_compat=0 / constrained_intra=0 / bframes=6 / b_pyramid=0 / b_adapt=2 / b_bias=0 / direct=3 / weightb=1 / open_gop=0 / weightp=2 / keyint=250 / keyint_min=23 / scenecut=40 / intra_refresh=0 / rc_lookahead=40 / rc=crf / mbtree=1 / crf=18.0 / qcomp=0.60 / qpmin=0 / qpmax=69 / qpstep=4 / ip_ratio=1.40 / aq=1:1.00
Language                       : English
Default                        : No
Forced                         : No
Audio #1
ID                             : 2
Format                         : DTS
Format/Info                    : Digital Theater Systems
Format profile                 : MA / Core
Codec ID                       : A_DTS
Duration                       : 1h 29mn
Bit rate mode                  : Variable
Bit rate                       : 1 561 Kbps / 1 510 Kbps
Channel(s)                     : 6 channels
Channel positions              : Front: L C R, Side: L R, LFE
Sampling rate                  : 48.0 KHz
Bit depth                      : 16 bits
Compression mode               : Lossless / Lossy
Language                       : Russian
Default                        : Yes
Forced                         : No
Audio #2
ID                             : 3
Format                         : DTS
Format/Info                    : Digital Theater Systems
Format profile                 : HRA / Core
Codec ID                       : A_DTS
Duration                       : 1h 29mn
Bit rate mode                  : Constant
Bit rate                       : 2 047 Kbps / 1 510 Kbps
Channel(s)                     : 6 channels
Channel positions              : Front: L C R, Side: L R, LFE
Sampling rate                  : 48.0 KHz
Bit depth                      : 16 bits / 24 bits
Compression mode               : Lossy
Stream size                    : 1.29 GiB (15%)
Language                       : French
Default                        : No
Forced                         : No
Audio #3
ID                             : 4
Format                         : DTS
Format/Info                    : Digital Theater Systems
Codec ID                       : A_DTS
Duration                       : 1h 29mn
Bit rate mode                  : Constant
Bit rate                       : 755 Kbps
Channel(s)                     : 6 channels
Channel positions              : Front: L C R, Side: L R, LFE
Sampling rate                  : 48.0 KHz
Bit depth                      : 24 bits
Compression mode               : Lossy
Stream size                    : 486 MiB (6%)
Language                       : English
Default                        : No
Forced                         : No
На встроенных ТВ-плейерах показывать НЕ будет!!!
Благодарности релизеру (1)

Торрент:

Статус:

Размер:

Зарегистрирован   [ 2012-02-24 16:01 ]

проверено

8.54 GB